Трансформеры: Эпоха истребления / Transformers: Age of Extinction (Майкл Бэй / Michael Bay) [2014, США, Китай, фантастика, боевик, приключения, BDRip] Dub (LINE)

Ответить на тему
 
Автор Сообщение

user ®

Стаж: 7 лет 7 месяцев

Сообщений: 20008

Пост Пост: #1 от 27-Сен-2014 22:05

[Цитировать]

Трансформеры: Эпоха истребленияTransformers: Age of Extinction«Сражаться вместе... Или погибнуть вместе»- Страна: США, Китай
Жанр: фантастика, боевик, приключения
Год выпуска: 2014
Продолжительность: 02:45:07-Перевод: Профессиональный (полное дублирование) (LINE)
Субтитры: нет
Режиссер: Майкл Бэй / Michael Bay
В ролях: Марк Уолберг, Никола Пельтц, Джек Рейнор, Стэнли Туччи, Келси Грэммер, Титус Уэлливер, ТиДжей Миллер, Ли Бинбин, София Майлс, Питер Каллен
Дублёры: Сергей Бурунов (Cade Yeager), Татьяна Ермилова (Tessa Yeager), Иван Калинин (Shane Dyson), Никита Прозоровский (Joshua Joyce), Игорь Старосельцев (Harold Attinger), Денис Некрасов (James Savoy), Дмитрий Кривощапов (Lucas Flannery), Ольга Зверева (Su Yueming), Елена Ивасишина (Darcy Tirrel), Владимир Левашёв, Всеволод Кузнецов, Иван Жарков-Описание: Автоботы и десептиконы оставили человечество собирать планету по кусочкам. Между тем группа могущественных бизнесменов и гениальных ученых пытается извлечь уроки из ошибок прошлого и улучшить технологии до такой степени, чтобы выйти за пределы контролируемого ранее. В это время другая группа - древних мощных трансформеров - берет Землю под прицел.-
MPAA: PG-13 - Детям до 13 лет просмотр не желателен-Качество: BDRip | BDRemux by Exkinoray | sample
Контейнер: AVI
Видео: XviD, 720x304 (2.35:1), 1686 kbps, 23,976 fps, 0,321 bpp
Аудио: AC3 / 2.0 / 48 kHz / 192 kbps / 16 bit-Скриншоты Media Info
General
Complete name : E:\my_rip\Transformers.Age.Of.Extinction.2014.BDRip.LINE.by.Дядя_Лёша.avi
Format : AVI
Format/Info : Audio Video Interleave
Format profile : OpenDML
File size : 2.18 GiB
Duration : 2h 45mn
Overall bit rate : 1 890 Kbps
Writing application : VirtualDubMod 1.5.10.3 | www.virtualdub-fr.org || (build 2550/release)
Writing library : VirtualDubMod build 2550/release
Video
ID : 0
Format : MPEG-4 Visual
Format profile : Advanced Simple@L5
Format settings, BVOP : 1
Format settings, QPel : No
Format settings, GMC : No warppoints
Format settings, Matrix : Custom
Codec ID : XVID
Codec ID/Hint : XviD
Duration : 2h 45mn
Bit rate : 1 686 Kbps
Width : 720 pixels
Height : 304 pixels
Display aspect ratio : 2.35:1
Frame rate : 23.976 fps
Color space : YUV
Chroma subsampling : 4:2:0
Bit depth : 8 bits
Scan type : Progressive
Compression mode : Lossy
Bits/(Pixel*Frame) : 0.321
Stream size : 1.95 GiB (89%)
Writing library : XviD 73
Audio
ID : 1
Format : AC-3
Format/Info : Audio Coding 3
Mode extension : CM (complete main)
Codec ID : 2000
Duration : 2h 45mn
Bit rate mode : Constant
Bit rate : 192 Kbps
Channel(s) : 2 channels
Channel positions : Front: L R
Sampling rate : 48.0 KHz
Bit depth : 16 bits
Compression mode : Lossy
Stream size : 227 MiB (10%)
Alignment : Split accross interleaves
Interleave, duration : 42 ms (1.00 video frame)
Interleave, preload duration : 500 ms
Скачать

Скачать торрент!

Как скачивать? · Что такое торрент? · Рейтинг и ограничения

Сайт не распространяет и не хранит электронные версии произведений, а лишь предоставляет доступ к создаваемому пользователями каталогу ссылок на торрент-файлы, которые содержат только списки хеш-сумм

[Профиль] [ЛС]
Показать сообщения:    
Ответить на тему

Текущее время: Сегодня 00:14

Часовой пояс: GMT + 4



Вы не можете начинать темы
Вы не можете отвечать на сообщения
Вы не можете редактировать свои сообщения
Вы не можете удалять свои сообщения
Вы не можете голосовать в опросах
Вы не можете прикреплять файлы к сообщениям
Вы не можете скачивать файлы