Город принял (Вячеслав Максаков) [1979, детектив, SATRip-AVC]

Ответить на тему
 
Автор Сообщение

user ®

Стаж: 7 лет 7 месяцев

Сообщений: 20008

Пост Пост: #1 от 27-Сен-2014 18:55

[Цитировать]

Город принял
Жанр: детектив
Год выпуска: 1979
Продолжительность: 01:15:18
Режиссёр: Вячеслав Максаков
В ролях: Михаил Чигарев, Инна Аленикова, Александр Пороховщиков, Виктор Шульгин, Николай Граббе, Георгий Николаенко, Анатолий Наврузов, Александр Адабашьян, Руслан Ахметов, Владимир Бадов, Елизавета Кузюрина, Виктор Рождественский
Описание: Фильм рассказывает об обычном дне дежурной группы московской милиции. За день группа раскрывает несколько самых разных преступлений: мошенничество, разбойное нападение на квартиру, ловит телефонного хулигана и даже оказывает помощь роженице. Параллельно идет расследование вооруженного ограбления сберкассы...
Доп. информация: Экранизация одноименной повести братьев Вайнеров.


Семпл
Качество видео: SATRip-AVC [Исходник: [url=http://***/forum/viewtopic.php?t=4585895]DVB[/url] (Спасибо Cheef mate)]
Формат видео: MKV
Видео: AVC (H.264), 704x320@750x320 (2.35:1), 25 fps, 1876 kbps avg, 0.333 bit/pixel
Аудио: AC3, 48 kHz, 16 bits, 192 kbps, 2ch
MediaInfo
Общее
Уникальный идентификатор : 219755193869555185997085275238699257029 (0xA5534F929B7802C5964697BD53E24CC5)
Полное имя : I:\Video\Город.принял.1979.SATRip-AVC.kvvk_2009.mkv
Формат : Matroska
Версия формата : Version 2
Размер файла : 1,09 Гбайт
Продолжительность : 1 ч. 15 м.
Общий поток : 2070 Кбит/сек
Дата кодирования : UTC 2014-09-26 08:15:36
Программа кодирования : mkvmerge v3.4.0 ('Rapunzel') built on May 15 2010 09:38:20
Библиотека кодирования : libebml v0.8.0 + libmatroska v0.9.0
Видео
Идентификатор : 1
Формат : AVC
Формат/Информация : Advanced Video Codec
Профиль формата : High@L4.1
Параметр CABAC формата : Да
Параметр ReFrames формата : 10 кадров
Идентификатор кодека : V_MPEG4/ISO/AVC
Продолжительность : 1 ч. 15 м.
Битрейт : 1876 Кбит/сек
Ширина : 704 пикселя
Высота : 320 пикселей
Соотношение сторон : 2,35:1
Соотношение сторон в оригинале : 2,35:1
Частота кадров : 25,000 кадров/сек
Цветовое пространство : YUV
Субдискретизация насыщенности : 4:2:0
Битовая глубина : 8 бит
Тип развёртки : Прогрессивная
Бит/(Пиксели*Кадры) : 0.333
Размер потока : 989 Мбайт (89%)
Библиотека кодирования : x264 core 142 r2431 ac76440
Настройки программы : cabac=1 / ref=10 / deblock=1:-2:-2 / analyse=0x3:0x113 / me=umh / subme=11 / psy=1 / psy_rd=1.00:0.10 / mixed_ref=1 / me_range=48 / chroma_me=1 / trellis=2 / 8x8dct=1 / cqm=0 / deadzone=21,11 / fast_pskip=1 / chroma_qp_offset=-3 / threads=6 / lookahead_threads=1 / sliced_threads=0 / nr=0 / decimate=0 / interlaced=0 / bluray_compat=0 / constrained_intra=0 / bframes=7 / b_pyramid=2 / b_adapt=2 / b_bias=0 / direct=3 / weightb=1 / open_gop=0 / weightp=2 / keyint=250 / keyint_min=25 / scenecut=40 / intra_refresh=0 / rc_lookahead=50 / rc=2pass / mbtree=0 / bitrate=1876 / ratetol=1.0 / qcomp=0.60 / qpmin=0 / qpmax=51 / qpstep=4 / cplxblur=20.0 / qblur=0.5 / vbv_maxrate=50000 / vbv_bufsize=62500 / nal_hrd=none / filler=0 / ip_ratio=1.40 / pb_ratio=1.30 / aq=1:0.90
Язык : English
Default : Нет
Forced : Нет
Аудио
Идентификатор : 2
Формат : AC-3
Формат/Информация : Audio Coding 3
Расширение режима : CM (complete main)
Идентификатор кодека : A_AC3
Продолжительность : 1 ч. 15 м.
Вид битрейта : Постоянный
Битрейт : 192 Кбит/сек
Каналы : 2 канала
Расположение каналов : Front: L R
Частота : 48,0 КГц
Битовая глубина : 16 бит
Метод сжатия : С потерями
Размер потока : 103 Мбайт (9%)
Заголовок : AC3 2ch @ 192kbps
Язык : Russian
Default : Да
Forced : Нет
Сравнение
Сравнение с [url=http://***/forum/viewtopic.php?t=4809233]http://***/forum/viewtopic.php?t=4809233[/url]
http://screenshotcomparison.com/comparison/93116/picture:4
Скриншот c названием фильма Скриншоты
Скачать

Скачать торрент!

Как скачивать? · Что такое торрент? · Рейтинг и ограничения

Сайт не распространяет и не хранит электронные версии произведений, а лишь предоставляет доступ к создаваемому пользователями каталогу ссылок на торрент-файлы, которые содержат только списки хеш-сумм

[Профиль] [ЛС]
Показать сообщения:    
Ответить на тему

Текущее время: Сегодня 21:21

Часовой пояс: GMT + 4



Вы не можете начинать темы
Вы не можете отвечать на сообщения
Вы не можете редактировать свои сообщения
Вы не можете удалять свои сообщения
Вы не можете голосовать в опросах
Вы не можете прикреплять файлы к сообщениям
Вы не можете скачивать файлы