Памятный альбом / The Memory Book (Пол А. Кауфман / Paul A. Kaufman) [2014, США, Драма, HDTVRip] VO (Lord32x)

Ответить на тему
 
Автор Сообщение

user ®

Стаж: 7 лет 7 месяцев

Сообщений: 20008

Пост Пост: #1 от 27-Сен-2014 18:55

[Цитировать]

-Памятный альбом / The Memory Book- Страна: США
Жанр: Драма
Год выпуска: 2014
Продолжительность: 01:23:22
Перевод: Любительский (одноголосый) Lord32x [по субтитрам vanilla_cake]
Cубтитры: нет
Оригинальная аудиодорожка: нет-Режиссер: Пол А. Кауфман /Paul A. Kaufman-В ролях: Меган Ори, Люк Макфарлайн, Адрианна Барбау, Джон Кассини, Майк Колейман, Арт Хиндл, Лиза МакФаден, Кэт де Лиева, Райан Брюс-Описание:
Начинающий фотограф на блошином рынке находит старый фотоальбом семидесятых годов, в котором находится хроника идеального любовного романа счастливой пары и решает найти пару из альбома.- -Релиз: GIPERWAREZ-Качество видео: HDTVRip
Формат видео: AVI
Видео: XviD, 2119 Кбит/с, 720x400, 23.976 fps
Аудио: AC3, 6 ch, 384 Кбит/с-

Скриншоты MediaInfo

General
Complete name : D:\Книга Памяти\The.Memory.Book.2014.HDTVRip.1500MB.avi
Format : AVI
Format/Info : Audio Video Interleave
File size : 1.46 GiB
Duration : 1h 23mn
Overall bit rate : 2 512 Kbps
Writing application : VirtualDubMod 1.5.10.3 | www.virtualdub-fr.org || (build 2550/release)
Writing library : VirtualDubMod build 2550/release
Video
ID : 0
Format : MPEG-4 Visual
Format profile : Advanced Simple@L5
Format settings, BVOP : 1
Format settings, QPel : No
Format settings, GMC : No warppoints
Format settings, Matrix : Default (MPEG)
Codec ID : XVID
Codec ID/Hint : XviD
Duration : 1h 23mn
Bit rate : 2 119 Kbps
Width : 720 pixels
Height : 400 pixels
Display aspect ratio : 16:9
Frame rate : 23.976 fps
Color space : YUV
Chroma subsampling : 4:2:0
Bit depth : 8 bits
Scan type : Progressive
Compression mode : Lossy
Bits/(Pixel*Frame) : 0.307
Stream size : 1.23 GiB (84%)
Writing library : XviD 1.2.1 (UTC 2008-12-04)
Audio
ID : 1
Format : AC-3
Format/Info : Audio Coding 3
Mode extension : CM (complete main)
Format settings, Endianness : Big
Codec ID : 2000
Duration : 1h 23mn
Bit rate mode : Constant
Bit rate : 384 Kbps
Channel(s) : 6 channels
Channel positions : Front: L C R, Side: L R, LFE
Sampling rate : 48.0 KHz
Bit depth : 16 bits
Compression mode : Lossy
Stream size : 229 MiB (15%)
Alignment : Split accross interleaves
Interleave, duration : 42 ms (1.00 video frame)
Interleave, preload duration : 500 ms
Скриншот c названием фильма
Скачать

Скачать торрент!

Как скачивать? · Что такое торрент? · Рейтинг и ограничения

Сайт не распространяет и не хранит электронные версии произведений, а лишь предоставляет доступ к создаваемому пользователями каталогу ссылок на торрент-файлы, которые содержат только списки хеш-сумм

[Профиль] [ЛС]
Показать сообщения:    
Ответить на тему

Текущее время: Сегодня 13:48

Часовой пояс: GMT + 4



Вы не можете начинать темы
Вы не можете отвечать на сообщения
Вы не можете редактировать свои сообщения
Вы не можете удалять свои сообщения
Вы не можете голосовать в опросах
Вы не можете прикреплять файлы к сообщениям
Вы не можете скачивать файлы