Город грехов 2: Женщина, ради которой стоит убивать / Sin City: A Dame to Kill For (Роберт Родригес / Robert Rodriguez, Фрэнк Миллер / Frank Miller) [2014 г., Кипр, США, триллер, криминал, HDRip] Dub

Ответить на тему
 
Автор Сообщение

user ®

Стаж: 7 лет 7 месяцев

Сообщений: 20008

Пост Пост: #1 от 27-Сен-2014 05:00

[Цитировать]

Город грехов 2: Женщина, ради которой стоит убивать / Sin City: A Dame to Kill For-«There is no justice without sin»- -Страна: Кипр, США
Жанр: триллер, криминал
Год выпуска: 2014
Продолжительность: 01:42:46
-Перевод: Профессиональный (дублированный) |Blu-Ray CEE|
Cубтитры: нет
Оригинальная аудиодорожка: нет
-Режиссер: Роберт Родригес / Robert Rodriguez, Фрэнк Миллер / Frank Miller
В ролях: Микки Рурк, Джессика Альба, Джош Бролин, Джозеф Гордон-Левитт, Розарио Доусон, Брюс Уиллис, Ева Грин, Пауэрс Бут, Деннис Хейсбёрт, Рэй Лиотта и др.
Описание: В темных переулках Города Грехов Дуайт планирует жестоко отомстить женщине по имени Ава Лорд, которая его предала, в то время как Нэнси пытается смириться со смертью детектива Хартигана.
- -Сэмпл: http://multi-up.com/1001581-Тип релиза: HDRip
Формат видео: AVI
Видео: MPEG4, XviD, 656x352 (1.864), 24.000 fps, 876 Kbps (0.158 bit/pixel)
Аудио: AC-3, 48.0 KHz, 2 ch, 128 Kbps, CBR (Russian)
-» MediaInfo
General
Complete name : D:\G0r0d.Grehov.2.2014.D.HDRip.700MB.avi
Format : AVI
Format/Info : Audio Video Interleave
File size : 745 MiB
Duration : 1h 42mn
Overall bit rate : 1 013 Kbps
Writing application : VirtualDubMod 1.5.10.2 (build 2540/release)
Writing library : VirtualDub build 32507/release
Video
ID : 0
Format : MPEG-4 Visual
Format profile : Advanced Simple@L5
Format settings, BVOP : 2
Format settings, QPel : No
Format settings, GMC : No warppoints
Format settings, Matrix : Custom
Codec ID : XVID
Codec ID/Hint : XviD
Duration : 1h 42mn
Bit rate : 876 Kbps
Width : 656 pixels
Height : 352 pixels
Display aspect ratio : 1.85:1
Frame rate : 24.000 fps
Color space : YUV
Chroma subsampling : 4:2:0
Bit depth : 8 bits
Scan type : Progressive
Compression mode : Lossy
Bits/(Pixel*Frame) : 0.158
Stream size : 644 MiB (86%)
Writing library : XviD 1.2.1 (UTC 2008-12-04)
Audio
ID : 1
Format : AC-3
Format/Info : Audio Coding 3
Mode extension : CM (complete main)
Format settings, Endianness : Big
Codec ID : 2000
Duration : 1h 42mn
Bit rate mode : Constant
Bit rate : 128 Kbps
Channel(s) : 2 channels
Channel positions : Front: L R
Sampling rate : 48.0 KHz
Bit depth : 16 bits
Compression mode : Lossy
Stream size : 94.1 MiB (13%)
Alignment : Split accross interleaves
Interleave, duration : 42 ms (1.00 video frame)
Interleave, preload duration : 500 ms
» Скриншот с названием фильма » Скриншоты
Скачать

Скачать торрент!

Как скачивать? · Что такое торрент? · Рейтинг и ограничения

Сайт не распространяет и не хранит электронные версии произведений, а лишь предоставляет доступ к создаваемому пользователями каталогу ссылок на торрент-файлы, которые содержат только списки хеш-сумм

[Профиль] [ЛС]
Показать сообщения:    
Ответить на тему

Текущее время: Сегодня 12:55

Часовой пояс: GMT + 4



Вы не можете начинать темы
Вы не можете отвечать на сообщения
Вы не можете редактировать свои сообщения
Вы не можете удалять свои сообщения
Вы не можете голосовать в опросах
Вы не можете прикреплять файлы к сообщениям
Вы не можете скачивать файлы