Грэбберсы / Grabbers (Джон Райт / Jon Wright) [2012, Великобритания, Ирландия, ужасы, фантастика, триллер, комедия, BDRip 720p] DUB + MVO (Рыжий Пёс) + Original Eng + Sub (rus, eng)

Ответить на тему
 
Автор Сообщение

user ®

Стаж: 7 лет 7 месяцев

Сообщений: 20008

Пост Пост: #1 от 27-Сен-2014 01:50

[Цитировать]

-Грэбберсы
Grabbers
- Год выпуска: 2012
Страна: Великобритания, Ирландия
Жанр: ужасы, фантастика, триллер, комедия
Продолжительность: 01:33:56
Перевод 1: Профессиональный (дублированный) - R5
Перевод 2: Любительский (многоголосый закадровый) - Рыжий пёс
Субтитры: русские, английские
Оригинальная аудиодорожка: английский
Режиссеры: Джон Райт / Jon Wright
В ролях: Ричард Койл, Рут Брэдли, Расселл Тови, Бронаг Галлахер, Паскаль Скотт, Луи Демпси, Нед Деннехи, Стюарт Грэм, Майкл Хоуг, Джонатан Райан, Барбара Адаир, Лоуренс Доэрти и др.
Описание: Когда на уединенном ирландском острове высаживаются кровожадные пришельцы, местные жители к собственной радости выясняют, что успешно бороться с монстрами все-таки можно: для этого необходимо всего лишь... хорошенько надраться и больше не просыхать.- -Качество: BDRip 720p
Формат: MKV
Видео кодек: H264
Аудио кодек: AC3
Видео: 1280x544 (2.35:1), 24 fps, 5356 kbps, 0.321 bit/pixel
Аудио 1: 48 kHz, AC3 Dolby Digital, 3/2 (L,C,R,l,r) + LFE ch, ~384.00 kbps avg | Russian | DUB (R5)
Аудио 2: 48 kHz, AC3 Dolby Digital, 3/2 (L,C,R,l,r) + LFE ch, ~640.00 kbps avg | Russian | MVO (Рыжий Пёс) [присутствует ненормативная лексика]
Аудио 4: 48 kHz, AC3 Dolby Digital, 3/2 (L,C,R,l,r) + LFE ch, ~640.00 kbps avg | English | оригинал-СЭМПЛ
-Скриншоты MediaInfo
General
Format : Matroska
File size : 4.70 GiB
Duration : 1h 33mn
Overall bit rate : 7 163 Kbps
Movie name : Grabbers (2012) - HQ-ViDEO
Encoded date : UTC 2014-09-21 17:58:44
Writing application : mkvmerge v2.9.7 ('Tenderness') built on Jul 1 2009 18:43:35
Writing library : libebml v0.7.7 + libmatroska v0.8.1
Video
ID : 1
Format : AVC
Format/Info : Advanced Video Codec
Format profile : High@L4.1
Format settings, CABAC : Yes
Format settings, ReFrames : 11 frames
Muxing mode : Container profile=Unknown@4.1
Codec ID : V_MPEG4/ISO/AVC
Duration : 1h 33mn
Bit rate : 5 356 Kbps
Width : 1 280 pixels
Height : 544 pixels
Display aspect ratio : 2.35:1
Frame rate : 24.000 fps
Resolution : 24 bits
Colorimetry : 4:2:0
Scan type : Progressive
Bits/(Pixel*Frame) : 0.321
Stream size : 3.51 GiB (75%)
Title : EbP
Language : English
Audio #1
ID : 2
Format : AC-3
Format/Info : Audio Coding 3
Codec ID : A_AC3
Duration : 1h 33mn
Bit rate mode : Constant
Bit rate : 384 Kbps
Channel(s) : 6 channels
Channel positions : Front: L C R, Surround: L R, LFE
Sampling rate : 48.0 KHz
Stream size : 258 MiB (5%)
Title : DUB (R5)
Language : Russian
Audio #2
ID : 3
Format : AC-3
Format/Info : Audio Coding 3
Codec ID : A_AC3
Duration : 1h 33mn
Bit rate mode : Constant
Bit rate : 640 Kbps
Channel(s) : 6 channels
Channel positions : Front: L C R, Surround: L R, LFE
Sampling rate : 48.0 KHz
Stream size : 430 MiB (9%)
Title : MVO (RedDog)
Language : Russian
Audio #3
ID : 4
Format : AC-3
Format/Info : Audio Coding 3
Codec ID : A_AC3
Duration : 1h 33mn
Bit rate mode : Constant
Bit rate : 640 Kbps
Channel(s) : 6 channels
Channel positions : Front: L C R, Surround: L R, LFE
Sampling rate : 48.0 KHz
Stream size : 430 MiB (9%)
Language : English
Text #1
ID : 5
Format : UTF-8
Codec ID : S_TEXT/UTF8
Codec ID/Info : UTF-8 Plain Text
Language : Russian
Text #2
ID : 6
Format : UTF-8
Codec ID : S_TEXT/UTF8
Codec ID/Info : UTF-8 Plain Text
Language : English
Menu
00:00:00.000 : en:00:00:00.000
00:08:23.083 : en:00:08:23.083
00:19:30.167 : en:00:19:30.167
00:24:36.458 : en:00:24:36.458
00:33:55.292 : en:00:33:55.292
00:41:32.542 : en:00:41:32.542
00:48:47.458 : en:00:48:47.458
00:56:14.292 : en:00:56:14.292
01:01:22.500 : en:01:01:22.500
01:08:55.292 : en:01:08:55.292
01:17:27.333 : en:01:17:27.333
01:27:56.167 : en:01:27:56.167
-Всем приятного просмотра!
Оставляйте комментарии.
-
Скачать

Скачать торрент!

Как скачивать? · Что такое торрент? · Рейтинг и ограничения

Сайт не распространяет и не хранит электронные версии произведений, а лишь предоставляет доступ к создаваемому пользователями каталогу ссылок на торрент-файлы, которые содержат только списки хеш-сумм

[Профиль] [ЛС]
Показать сообщения:    
Ответить на тему

Текущее время: Сегодня 08:13

Часовой пояс: GMT + 4



Вы не можете начинать темы
Вы не можете отвечать на сообщения
Вы не можете редактировать свои сообщения
Вы не можете удалять свои сообщения
Вы не можете голосовать в опросах
Вы не можете прикреплять файлы к сообщениям
Вы не можете скачивать файлы