Риддик / Riddick (Дэвид Туи / David Twohy) [2013, США, Великобритания, фантастика, боевик, триллер, BDRemux 1080p] [Extended Cut] Dub + AVO (Гаврилов) + AVO (Володарский) + VO (Есарев) + Sub Rus, Eng + Original Eng

Ответить на тему
 
Автор Сообщение

user ®

Стаж: 7 лет 7 месяцев

Сообщений: 20008

Пост Пост: #1 от 26-Сен-2014 22:40

[Цитировать]

-Риддик / Riddick / Extended Cut-Страна: США, Великобритания
Жанр: фантастика, боевик, триллер
Год выпуска: 2013
Продолжительность: 02:06:47-Перевод: Профессиональный (дублированный) со вставками DVO Parad на Extended-эпизоды
Перевод 2: Авторский (одноголосый закадровый) А.Гаврилов
Перевод 3: Авторский (одноголосый закадровый) Л.Володарский
Перевод 4: Одноголосый закадровый Д.Есарев
Cубтитры: русские (полные и форсированные на расширенные эпизоды), английские
Оригинальная аудиодорожка: английский-Режиссер: Дэвид Туи / David Twohy
В ролях: Вин Дизель, Хорди Молья, Мэтью Нэйбл, Кэти Сакхофф, Дэйв Батиста, Букем Вудбайн, Рауль Трухильо, Конрад Пла, Дэнни Бланко, Карл Урбан-Описание: Преданный своими и брошенный умирать на пустынной планете, Риддик сражается с хищниками за жизнь и становится сильнее и опаснее себя прежнего. Открывшие на него охоту галактические наемники оказываются пешками в грандиозном плане отмщения. С врагами, возникающими на его пути тогда, когда это нужно самому Риддику, он начинает поход во имя мести, чтобы в конечном счете вернуться на родную Фурию и спасти ее от уничтожения.-Сэмпл: https://yadi.sk/i/ZBpfK9IcbeUCu-Тип релиза: BDRemux 1080p
Контейнер: MKV
Видео: MPEG-4 AVC Video 25374 kbps 1080p / 23.976 fps / 16:9 / High Profile 4.1
Аудио: Russian: 48 kHz, AC3, 3/2 (L,C,R,l,r) + LFE ch, ~384.00 kbps avg |Дубляж, вставки DVO Paradox|
Аудио 2: DTS-HD Master Audio Russian 3897 kbps 5.1 / 48 kHz / 24-bit (DTS Core: 5.1 / 48 kHz / 1509 kbps / 24-bit) |Одноголосый закадровый, А.Гаврилов|
Аудио 3: DTS-HD Master Audio Russian 3898 kbps 5.1 / 48 kHz / 24-bit (DTS Core: 5.1 / 48 kHz / 1509 kbps / 24-bit) |Одноголосый закадровый, Л.Володарский|
Аудио 4: DTS-HD Master Audio Russian 3900 kbps 5.1 / 48 kHz / 24-bit (DTS Core: 5.1 / 48 kHz / 1509 kbps / 24-bit) |Одноголосый закадровый, Д.Есарев|
Аудио 5: DTS-HD Master Audio English 3877 kbps 5.1 / 48 kHz / 24-bit (DTS Core: 5.1 / 48 kHz / 1509 kbps / 24-bit)
Аудио 6: Ukrainian: 48 kHz, AC3, 2/0 (L,R) ch, ~192.00 kbps avg |Дубляж|
Аудио 7: Ukrainian: 48 kHz, AC3, 2/0 (L,R) ch, ~192.00 kbps avg |Многоголосый закадровый, ICTV|
Формат субтитров: softsub (SRT)
MI
GeneralUnique ID : 182480250999262446000629326369483525739 (0x89486AFFCFD0268A8AE0D77C259A0E6B)Complete name : X:\ -= Фильмы =-\Риддик (2013. Riddick) [Extended Cut].mkvFormat : MatroskaFormat version : Version 2File size : 36.7 GiBDuration : 2h 6mnOverall bit rate mode : VariableOverall bit rate : 41.5 MbpsMovie name : RIDDICK_EXTENDED_CUT_2013_BDREMUX_HDCLUBEncoded date : UTC 2014-09-24 23:08:33Writing application : mkvmerge v4.9.1 ('Ich will') сборка от Jul 11 2011 23:53:15Writing library : libebml v1.2.1 + libmatroska v1.1.1
VideoID : 1Format : AVCFormat/Info : Advanced Video CodecFormat profile : High@L4.1Format settings, CABAC : YesFormat settings, ReFrames : 4 framesFormat settings, GOP : M=3, N=12Codec ID : V_MPEG4/ISO/AVCDuration : 2h 6mnBit rate mode : VariableMaximum bit rate : 33.0 MbpsWidth : 1 920 pixelsHeight : 1 080 pixelsDisplay aspect ratio : 16:9Frame rate mode : ConstantFrame rate : 23.976 fpsColor space : YUVChroma subsampling : 4:2:0Bit depth : 8 bitsScan type : ProgressiveLanguage : EnglishDefault : YesForced : No
Audio #1ID : 2Format : AC-3Format/Info : Audio Coding 3Mode extension : CM (complete main)Format settings, Endianness : BigCodec ID : A_AC3Duration : 2h 6mnBit rate mode : ConstantBit rate : 384 KbpsChannel(s) : 6 channelsChannel positions : Front: L C R, Side: L R, LFESampling rate : 48.0 KHzBit depth : 16 bitsCompression mode : LossyStream size : 348 MiB (1%)Title : Дубляж, вставки DVO ParadoxLanguage : RussianDefault : YesForced : No
Audio #2ID : 3Format : DTSFormat/Info : Digital Theater SystemsFormat profile : MA / CoreMode : 16Format settings, Endianness : BigCodec ID : A_DTSDuration : 2h 6mnBit rate mode : VariableBit rate : Unknown / 1 509 KbpsChannel(s) : 6 channelsChannel positions : Front: L C R, Side: L R, LFESampling rate : 48.0 KHzBit depth : 24 bitsCompression mode : Lossless / LossyTitle : Андрей ГавриловLanguage : RussianDefault : NoForced : No
Audio #3ID : 4Format : DTSFormat/Info : Digital Theater SystemsFormat profile : MA / CoreMode : 16Format settings, Endianness : BigCodec ID : A_DTSDuration : 2h 6mnBit rate mode : VariableBit rate : Unknown / 1 509 KbpsChannel(s) : 6 channelsChannel positions : Front: L C R, Side: L R, LFESampling rate : 48.0 KHzBit depth : 24 bitsCompression mode : Lossless / LossyTitle : Леонид ВолодарскийLanguage : RussianDefault : NoForced : No
Audio #4ID : 5Format : DTSFormat/Info : Digital Theater SystemsFormat profile : MA / CoreMode : 16Format settings, Endianness : BigCodec ID : A_DTSDuration : 2h 6mnBit rate mode : VariableBit rate : Unknown / 1 509 KbpsChannel(s) : 6 channelsChannel positions : Front: L C R, Side: L R, LFESampling rate : 48.0 KHzBit depth : 24 bitsCompression mode : Lossless / LossyTitle : Дмитрий ЕсаревLanguage : RussianDefault : NoForced : No
Audio #5ID : 6Format : DTSFormat/Info : Digital Theater SystemsFormat profile : MA / CoreMode : 16Format settings, Endianness : BigCodec ID : A_DTSDuration : 2h 6mnBit rate mode : VariableBit rate : Unknown / 1 509 KbpsChannel(s) : 6 channelsChannel positions : Front: L C R, Side: L R, LFESampling rate : 48.0 KHzBit depth : 24 bitsCompression mode : Lossless / LossyLanguage : EnglishDefault : NoForced : No
Audio #6ID : 7Format : AC-3Format/Info : Audio Coding 3Mode extension : CM (complete main)Format settings, Endianness : BigCodec ID : A_AC3Duration : 2h 6mnBit rate mode : ConstantBit rate : 192 KbpsChannel(s) : 2 channelsChannel positions : Front: L RSampling rate : 48.0 KHzBit depth : 16 bitsCompression mode : LossyStream size : 174 MiB (0%)Title : ДубляжLanguage : UkrainianDefault : NoForced : No
Audio #7ID : 8Format : AC-3Format/Info : Audio Coding 3Mode extension : CM (complete main)Format settings, Endianness : BigCodec ID : A_AC3Duration : 2h 6mnBit rate mode : ConstantBit rate : 192 KbpsChannel(s) : 2 channelsChannel positions : Front: L RSampling rate : 48.0 KHzBit depth : 16 bitsCompression mode : LossyStream size : 174 MiB (0%)Title : MVO [ICTV]Language : UkrainianDefault : NoForced : No
Text #1ID : 9Format : UTF-8Codec ID : S_TEXT/UTF8Codec ID/Info : UTF-8 Plain TextTitle : forcedLanguage : RussianDefault : YesForced : No
Text #2ID : 10Format : UTF-8Codec ID : S_TEXT/UTF8Codec ID/Info : UTF-8 Plain TextTitle : voronineLanguage : RussianDefault : NoForced : No
Text #3ID : 11Format : UTF-8Codec ID : S_TEXT/UTF8Codec ID/Info : UTF-8 Plain TextLanguage : EnglishDefault : NoForced : No
Menu00:00:00.000 : en:The Necromongers00:05:35.418 : en:Hard Bounty00:12:10.521 : en:Back to Civilization00:23:27.364 : en:A Fighting Chance00:27:56.425 : en:A True Furyan00:32:11.221 : en:Attack of the Necromongers00:38:03.698 : en:Lensing & Cleansing00:44:20.283 : en:The Lord Marshal's Offer00:48:40.876 : en:Mind Regression00:56:19.668 : en:Caught01:01:16.673 : en:You Can Keep What You Kill01:07:35.093 : en:Welcome to Crematoria01:15:23.436 : en:Jack's Dead...01:19:58.836 : en:A Private War01:26:51.832 : en:Feeding Time01:31:27.107 : en:Two Killers01:39:32.717 : en:Good News & Bad News01:45:32.701 : en:Running the Surface01:53:45.652 : en:The Big Heat02:02:56.160 : en:The Better Killer02:06:47.391 : en:End Titles
Скриншоты


Зеркало


Еще Цитата:
  • Релиз by Прагматик
  • Сохранены оригинальные чаптеры как на Blu-Ray.
  • За перевод Леонида Володарского спасибо пользователям трекера Е-180: Nadoelo, RockFM, пуля, vik19662007, kinobbk, User, zeleniy, SavineX78, Nick, Wolf_Larsen, ZeDOK, luka69, Iceman, Daniel Rock, Эдуард, dir, Kastro, bla_, Диммон, GansAn, Hattori Hanzo, uchitel538, AlBeOne, carnivale, 48ronin, pupsik197, furria62, Vladimir, idalgo, _shurik_, Tio, Savely, videolover, Gouzer, tide, Andrey_Tula, denis_mgn_1987, masta, lotasfan, rammzez, pestel, Petro0999, Gross1978, MyxAmoP, vavana, v1111o.
  • За перевод Андрея Гаврилова спасибо пользователям: rydanes, kinobbk, chef&chef, Denis2251, Hattori Hanzo, Loki, _MyxAmoP_, Letyoha3, Brown15, Luka69, Gross1978, Skibichok, foxlight, GaryH, milocerd0v, -Джосс-, Pain_70, KerkP, SavineX, karantin66, ZeRoNe, GansAn, mamachucha66, v111o, kondratzx, TvarYuri, Vimann, Wolf_Larsen, furria62, dunhill200, Chistobaev, lexal, Guyver, apollion, Role, banan87, LAVR, Tio, maximus1099, hulahup, Shumway, Tehnar, Jiraya87, nimph, Видео, dark1982, shtift, carter64, vadamk, zork, feldeger, sawyer4, Андрей, AndreyTula, rammzez, Consul, Диммон, therox, saenwert, Schmulke, Ace34, olegsoleg, spacenoise, anvic, Slimka, DrCrane, Gangster, Floydman, Iron Man, TOMAN, denis_mgn_1987, DB73.
  • Перевод Дмитрия Есарева доступен благодаря пользователям Переулка Переводомана: ZeDOK, farivan, будулайроманов, dikii, kidman644, ARTYq, MrRose, DREADG, s.scheyko, Loki1982.
  • За українські доріжки дякуемо трекеру Гуртом та власне patriot2305. За запис з ТБ подяки п. Sando7, п. OlegCena та п. bambulla
Скачать

Скачать торрент!

Как скачивать? · Что такое торрент? · Рейтинг и ограничения

Сайт не распространяет и не хранит электронные версии произведений, а лишь предоставляет доступ к создаваемому пользователями каталогу ссылок на торрент-файлы, которые содержат только списки хеш-сумм

[Профиль] [ЛС]
Показать сообщения:    
Ответить на тему

Текущее время: Сегодня 23:20

Часовой пояс: GMT + 4



Вы не можете начинать темы
Вы не можете отвечать на сообщения
Вы не можете редактировать свои сообщения
Вы не можете удалять свои сообщения
Вы не можете голосовать в опросах
Вы не можете прикреплять файлы к сообщениям
Вы не можете скачивать файлы