Азартные игры / Reindeer Games (Джон Франкенхаймер / John Frankenheimer) [2000, США, боевик, триллер, драма, криминал, BDRip 1080p] [Director\'s Cut] AVO (Гаврилов) + Original Eng + sub eng

Ответить на тему
 
Автор Сообщение

user ®

Стаж: 7 лет 7 месяцев

Сообщений: 20008

Пост Пост: #1 от 26-Сен-2014 22:40

[Цитировать]

Азартные игры / Reindeer Games [Director's Cut]- Год выпуска: 2000
Выпущено: США
Жанр: боевик, триллер, драма, криминал
Продолжительность: 02:04:35
Перевод: Авторский одноголосый А.Гаврилов
Оригинальная звуковая дорожка: English
Субтитры: English-Режиссер: Джон Франкенхаймер / John Frankenheimer
В ролях: Бен Аффлек, Шарлиз Терон, Гэри Синиз, Деннис Фарина, Джеймс Фрейн, Донал Лог, Дэнни Трехо, Айзек Хейз, Гордон Тутусис, Дана Стаблфилд
О фильме: Ловушки расставлены. Для дерзкого ограбления банде головорезов нужен некий Ник, знакомый с охранной системой процветающего казино. Вскоре он должен выйти из тюрьмы.
В качестве приманки на встречу ему посылают красавицу Эшли, которая вела с ним заочную романтическую переписку. Ничего не подозревающий друг Ника - Руди решает выдать себя за него, чтобы познакомиться с загадочной девушкой. И теперь эта азартная игра может стоить ему жизни...
SbR!
Релиз:
Формат: MKV
Видео: 1920x808 at 23.976 fps, x264@L4.1, ~15462 kbps
Аудио #01: Russian: 48 kHz, AC3, 3/2 (L,C,R,l,r) + LFE ch, ~448 kbps |Одноголосый закадровый, А. Гаврилов|
Аудио #02: English: 48 kHz, DTS 5.1, ~1509 kbps
Семпл-Source vs Encoded
-
mInfo
Формат : Matroska
Версия формата : Version 4 / Version 2
Размер файла : 15,2 Гбайт
Продолжительность : 2 ч. 4 м.
Общий поток : 17,4 Мбит/сек
Название фильма : Reindeer Games (2000) [Director's Cut] - Release for HDCLUB by SbR
Дата кодирования : UTC 2014-09-19 08:02:23
Программа кодирования : mkvmerge v7.1.0 ('Good Love') 64bit built on Jul 27 2014 13:06:55
Библиотека кодирования : libebml v1.3.0 + libmatroska v1.4.1
Attachment : Yes
Видео
Идентификатор : 1
Формат : AVC
Формат/Информация : Advanced Video Codec
Профиль формата : High@L4.1
Параметр CABAC формата : Да
Параметр ReFrames формата : 5 кадров
Идентификатор кодека : V_MPEG4/ISO/AVC
Продолжительность : 2 ч. 4 м.
Битрейт : 15,1 Мбит/сек
Ширина : 1920 пикселей
Высота : 808 пикселей
Соотношение сторон : 2,40:1
Режим частоты кадров : Постоянный
Частота кадров : 23,976 кадра/сек
Цветовое пространство : YUV
Субдискретизация насыщенности : 4:2:0
Битовая глубина : 8 бит
Тип развёртки : Прогрессивная
Бит/(Пиксели*Кадры) : 0.406
Размер потока : 13,2 Гбайт (87%)
Заголовок : Release for HDCLUB
Библиотека кодирования : x264 core 142 r2453 ea0ca51
Настройки программы : cabac=1 / ref=5 / deblock=1:-2:-2 / analyse=0x3:0x133 / me=umh / subme=11 / psy=1 / psy_rd=1.00:0.05 / mixed_ref=1 / me_range=32 / chroma_me=1 / trellis=2 / 8x8dct=1 / cqm=0 / deadzone=21,11 / fast_pskip=1 / chroma_qp_offset=-3 / threads=12 / lookahead_threads=2 / sliced_threads=0 / nr=0 / decimate=1 / interlaced=0 / bluray_compat=0 / constrained_intra=0 / bframes=9 / b_pyramid=2 / b_adapt=2 / b_bias=0 / direct=1 / weightb=1 / open_gop=0 / weightp=2 / keyint=250 / keyint_min=23 / scenecut=40 / intra_refresh=0 / rc_lookahead=60 / rc=crf / mbtree=0 / crf=16.5 / qcomp=0.70 / qpmin=0 / qpmax=69 / qpstep=4 / vbv_maxrate=62500 / vbv_bufsize=78125 / crf_max=0.0 / nal_hrd=none / filler=0 / ip_ratio=1.40 / pb_ratio=1.30 / aq=1:0.80
Язык : English
Default : Да
Forced : Нет
Основные цвета : BT.709
Характеристики трансфера : BT.709
Коэффициенты матрицы : BT.709
Аудио #1
Идентификатор : 2
Формат : AC-3
Формат/Информация : Audio Coding 3
Расширение режима : CM (complete main)
Параметр Endianness формата : Big
Идентификатор кодека : A_AC3
Продолжительность : 2 ч. 4 м.
Вид битрейта : Постоянный
Битрейт : 448 Кбит/сек
Каналы : 6 каналов
Расположение каналов : Front: L C R, Side: L R, LFE
Частота : 48,0 КГц
Битовая глубина : 16 бит
Метод сжатия : С потерями
Размер потока : 399 Мбайт (3%)
Заголовок : VO, Гаврилов
Язык : Russian
Default : Да
Forced : Нет
Аудио #2
Идентификатор : 3
Формат : DTS
Формат/Информация : Digital Theater Systems
Режим : 16
Параметр Endianness формата : Big
Идентификатор кодека : A_DTS
Продолжительность : 2 ч. 4 м.
Вид битрейта : Постоянный
Битрейт : 1509 Кбит/сек
Каналы : 6 каналов
Расположение каналов : Front: L C R, Side: L R, LFE
Частота : 48,0 КГц
Битовая глубина : 24 бит
Метод сжатия : С потерями
Размер потока : 1,31 Гбайт (9%)
Язык : English
Default : Нет
Forced : Нет
Текст
Идентификатор : 4
Формат : UTF-8
Идентификатор кодека : S_TEXT/UTF8
Идентификатор кодека/Информация : UTF-8 Plain Text
Язык : English
Default : Нет
Forced : Нет
Меню
00:00:00.000 : en:Opening Credits / Prison Life
00:12:37.213 : en:"Monsters In The Gelatin"
00:21:46.638 : en:Oh, Ashley
00:29:44.239 : en:Getting To Know Each Other
00:37:55.773 : en:Merry Christmas, Nick
00:43:04.123 : en:The Setup
00:48:25.110 : en:The Plan
00:56:07.113 : en:First-Time Robbers
01:03:29.347 : en:Cowboy and Indians
01:09:12.022 : en:The Chase Is On
01:12:03.902 : en:No More Games
01:18:07.599 : en:You Saved My Life
01:30:04.439 : en:"'Tis The Season, Convict"
01:36:52.723 : en:The Escape
01:42:32.563 : en:Back To Square One
01:56:15.593 : en:Santa's Little Helpers
-
Скачать

Скачать торрент!

Как скачивать? · Что такое торрент? · Рейтинг и ограничения

Сайт не распространяет и не хранит электронные версии произведений, а лишь предоставляет доступ к создаваемому пользователями каталогу ссылок на торрент-файлы, которые содержат только списки хеш-сумм

[Профиль] [ЛС]
Показать сообщения:    
Ответить на тему

Текущее время: Сегодня 21:36

Часовой пояс: GMT + 4



Вы не можете начинать темы
Вы не можете отвечать на сообщения
Вы не можете редактировать свои сообщения
Вы не можете удалять свои сообщения
Вы не можете голосовать в опросах
Вы не можете прикреплять файлы к сообщениям
Вы не можете скачивать файлы