Порождающая огонь / Воспламеняющая взглядом / Firestarter (Марк Л. Лестер / Mark L. Lester) [1984, США, фантастика, триллер, экранизация, BDRip 1080p] DVO (НТВ+) + DVO (СТС) + DVO (YES) + MVO (ТВ-3) + AVO (Гаврилов) + Ukr + Sub Eng + Original Eng

Ответить на тему
 
Автор Сообщение

user ®

Стаж: 7 лет 7 месяцев

Сообщений: 20008

Пост Пост: #1 от 26-Сен-2014 05:35

[Цитировать]

Порождающая огонь / Воспламеняющая взглядом / Firestarter
Страна: США
Жанр: фантастика, триллер, экранизация
Год выпуска: 1984
Продолжительность: 01:54:12
-
Перевод 1: Профессиональный (двухголосый закадровый) НТВ+
Перевод 2: Профессиональный (двухголосый закадровый) СТС
Перевод 3: Профессиональный (двухголосый закадровый) YES
Перевод 4: Профессиональный (многоголосый закадровый) ТВ-3
Перевод 5: Авторский (одноголосый закадровый) Андрей Гаврилов
Cубтитры: английские (полные и SDH)
Оригинальная аудиодорожка: английский
-
Режиссер: Марк Л. Лестер / Mark L. Lester
В ролях: Дэвид Кит, Дрю Бэрримор, Фредди Джоунс, Хезер Локлир, Мартин Шин, Джордж С. Скотт, Арт Карни, Луиз Флетчер, Моузес Ганн, Антонио Фаргас
-
Описание: Чарли Макги кажется обычной счастливой девочкой восьми лет, пока что-нибудь не разозлит ее или не начнет угрожать ее семье. Тогда Чарли меняется: проявляется ее унаследованная от родителей смертоносная способность — зажигать взглядом все, что она пожелает. Чарли не всегда может контролировать свою силу и, возможно, когда она вырастет ее могущество будет опасно для всей планеты. Спецслужбы хотят использовать девочку и похищают ее, убивая при этом маму Чарли. Они хотят контролировать девочку… или уничтожить. Ее отец не в силах спасти дочку, но Чарли сумеет позаботиться о себе сама.
-

-
Сэмпл: https://www.sendspace.com/file/0ehyx9
-
Тип релиза: BDRip 1080p
Контейнер: MKV
Видео: 1920x816p (2.35:1), 23.976 fps, 9 500 Kbps
Аудио 1: русский / AC3 / 2.0 / 48 kHz / 192 kbps / 16 bit || DVO
Аудио 2: русский / AC3 / 2.0 / 48 kHz / 192 kbps / 16 bit || DVO
Аудио 3: русский / AC3 / 2.0 / 48 kHz / 192 kbps / 16 bit || DVO
Аудио 4: русский / AC3 / 2.0 / 48 kHz / 192 kbps / 16 bit || MVO
Аудио 5: русский / DTS / 2.0 / 48 kHz / 1509 kbps / 24 bit || AVO
Аудио 6: украинский / AC3 / 2.0 / 48 kHz / 192 kbps / 16 bit || UKR
Аудио 7: английский / DTS / 2.0 / 48 kHz / 1509 kbps / 24 bit || Original
Формат субтитров: softsub (SRT)
Главы: есть
Доп. информация
рип от MediaClub, английские субтитры (полные) взяты из сети, зв. дорожки 5,7 отсюда [url=http://***/forum/viewtopic.php?t=4812733]http://***/forum/viewtopic.php?t=4812733[/url] Авторам спасибо.
MediaInfo
General
Unique ID : 248532115222739604417011511295844994591 (0xBAF98B5641F5666DA96B6E3F0A22CE1F)
Complete name : C:\Users\ALEX\Downloads\Фильмы\HD\Firestarter.1984.BDRip.1080p.5xRus.Ukr.Eng.Subs.Chpt.mkv
Format : Matroska
Format version : Version 4 / Version 2
File size : 10.8 GiB
Duration : 1h 54mn
Overall bit rate : 13.5 Mbps
Encoded date : UTC 2014-09-23 18:27:49
Writing application : mkvmerge v6.6.0 ('The Edge Of The In Between') built on Dec 1 2013 17:55:00
Writing library : libebml v1.3.0 + libmatroska v1.4.1
Video
ID : 1
Format : AVC
Format/Info : Advanced Video Codec
Format profile : High@L4.1
Format settings, CABAC : Yes
Format settings, ReFrames : 5 frames
Codec ID : V_MPEG4/ISO/AVC
Duration : 1h 54mn
Bit rate : 9 500 Kbps
Width : 1 920 pixels
Height : 816 pixels
Display aspect ratio : 2.35:1
Frame rate mode : Constant
Frame rate : 23.976 fps
Color space : YUV
Chroma subsampling : 4:2:0
Bit depth : 8 bits
Scan type : Progressive
Bits/(Pixel*Frame) : 0.253
Stream size : 7.37 GiB (69%)
Title : MediaClub
Writing library : x264 core 142 r2431+42 c69a006 tMod [8-bit@4:2:0 X86_64]
Encoding settings : cabac=1 / ref=5 / deblock=1:-3:-3 / analyse=0x3:0x113 / me=umh / subme=11 / psy=1 / fade_compensate=0.00 / psy_rd=1.00:0.20 / mixed_ref=1 / me_range=32 / chroma_me=1 / trellis=2 / 8x8dct=1 / cqm=0 / deadzone=21,11 / fast_pskip=0 / chroma_qp_offset=-3 / threads=12 / lookahead_threads=2 / sliced_threads=0 / nr=0 / decimate=0 / interlaced=0 / bluray_compat=0 / constrained_intra=0 / fgo=0 / bframes=9 / b_pyramid=2 / b_adapt=2 / b_bias=0 / direct=3 / weightb=1 / open_gop=0 / weightp=2 / keyint=240 / keyint_min=23 / scenecut=40 / intra_refresh=0 / rc=2pass / mbtree=0 / bitrate=9500 / ratetol=1.0 / qcomp=0.60 / qpmin=0:0:0 / qpmax=69:69:69 / qpstep=4 / cplxblur=20.0 / qblur=0.5 / ip_ratio=1.40 / pb_ratio=1.30 / aq=4:0.80 / aq-sensitivity=10.00 / aq-factor=1.00:1.00:1.00 / aq2=0 / aq3=0
Language : English
Default : Yes
Forced : No
Audio #1
ID : 2
Format : AC-3
Format/Info : Audio Coding 3
Mode extension : CM (complete main)
Format settings, Endianness : Big
Codec ID : A_AC3
Duration : 1h 54mn
Bit rate mode : Constant
Bit rate : 192 Kbps
Channel(s) : 2 channels
Channel positions : Front: L R
Sampling rate : 48.0 KHz
Bit depth : 16 bits
Compression mode : Lossy
Stream size : 157 MiB (1%)
Title : DVO (HTB+)
Language : Russian
Default : Yes
Forced : No
Audio #2
ID : 3
Format : AC-3
Format/Info : Audio Coding 3
Mode extension : CM (complete main)
Format settings, Endianness : Big
Codec ID : A_AC3
Duration : 1h 54mn
Bit rate mode : Constant
Bit rate : 192 Kbps
Channel(s) : 2 channels
Channel positions : Front: L R
Sampling rate : 48.0 KHz
Bit depth : 16 bits
Compression mode : Lossy
Stream size : 157 MiB (1%)
Title : DVO (CTC)
Language : Russian
Default : No
Forced : No
Audio #3
ID : 4
Format : AC-3
Format/Info : Audio Coding 3
Mode extension : CM (complete main)
Format settings, Endianness : Big
Codec ID : A_AC3
Duration : 1h 54mn
Bit rate mode : Constant
Bit rate : 192 Kbps
Channel(s) : 2 channels
Channel positions : Front: L R
Sampling rate : 48.0 KHz
Bit depth : 16 bits
Compression mode : Lossy
Stream size : 157 MiB (1%)
Title : DVO (YES)
Language : Russian
Default : No
Forced : No
Audio #4
ID : 5
Format : AC-3
Format/Info : Audio Coding 3
Mode extension : CM (complete main)
Format settings, Endianness : Big
Codec ID : A_AC3
Duration : 1h 54mn
Bit rate mode : Constant
Bit rate : 192 Kbps
Channel(s) : 2 channels
Channel positions : Front: L R
Sampling rate : 48.0 KHz
Bit depth : 16 bits
Compression mode : Lossy
Stream size : 157 MiB (1%)
Title : MVO (TB-3)
Language : Russian
Default : No
Forced : No
Audio #5
ID : 6
Format : DTS
Format/Info : Digital Theater Systems
Mode : 16
Format settings, Endianness : Big
Codec ID : A_DTS
Duration : 1h 54mn
Bit rate mode : Constant
Bit rate : 1 509 Kbps
Channel(s) : 2 channels
Channel positions : Front: L R
Sampling rate : 48.0 KHz
Bit depth : 24 bits
Compression mode : Lossy
Stream size : 1.20 GiB (11%)
Title : AVO (Андрей Гаврилов)
Language : Russian
Default : No
Forced : No
Audio #6
ID : 7
Format : AC-3
Format/Info : Audio Coding 3
Mode extension : CM (complete main)
Format settings, Endianness : Big
Codec ID : A_AC3
Duration : 1h 54mn
Bit rate mode : Constant
Bit rate : 192 Kbps
Channel(s) : 2 channels
Channel positions : Front: L R
Sampling rate : 48.0 KHz
Bit depth : 16 bits
Compression mode : Lossy
Stream size : 157 MiB (1%)
Title : MVO (1+1)
Language : Ukrainian
Default : No
Forced : No
Audio #7
ID : 8
Format : DTS
Format/Info : Digital Theater Systems
Mode : 16
Format settings, Endianness : Big
Codec ID : A_DTS
Duration : 1h 54mn
Bit rate mode : Constant
Bit rate : 1 509 Kbps
Channel(s) : 2 channels
Channel positions : Front: L R
Sampling rate : 48.0 KHz
Bit depth : 24 bits
Compression mode : Lossy
Stream size : 1.20 GiB (11%)
Title : Original
Language : English
Default : No
Forced : No
Text #1
ID : 9
Format : UTF-8
Codec ID : S_TEXT/UTF8
Codec ID/Info : UTF-8 Plain Text
Title : Full
Language : English
Default : No
Forced : No
Text #2
ID : 10
Format : UTF-8
Codec ID : S_TEXT/UTF8
Codec ID/Info : UTF-8 Plain Text
Title : SDH
Language : English
Default : No
Forced : No
Menu
00:00:00.000 : en:Chapter 01
00:08:08.571 : en:Chapter 02
00:16:25.609 : en:Chapter 03
00:22:14.041 : en:Chapter 04
00:34:44.373 : en:Chapter 05
00:45:36.191 : en:Chapter 06
00:54:58.044 : en:Chapter 07
01:05:13.910 : en:Chapter 08
01:12:45.652 : en:Chapter 09
01:21:54.242 : en:Chapter 10
01:29:14.640 : en:Chapter 11
01:33:41.282 : en:Chapter 12
01:36:23.444 : en:Chapter 13
01:41:37.883 : en:Chapter 14
01:49:53.461 : en:Chapter 15
01:51:03.156 : en:Chapter 16
Скриншоты
Скачать

Скачать торрент!

Как скачивать? · Что такое торрент? · Рейтинг и ограничения

Сайт не распространяет и не хранит электронные версии произведений, а лишь предоставляет доступ к создаваемому пользователями каталогу ссылок на торрент-файлы, которые содержат только списки хеш-сумм

[Профиль] [ЛС]
Показать сообщения:    
Ответить на тему

Текущее время: Сегодня 17:45

Часовой пояс: GMT + 4



Вы не можете начинать темы
Вы не можете отвечать на сообщения
Вы не можете редактировать свои сообщения
Вы не можете удалять свои сообщения
Вы не можете голосовать в опросах
Вы не можете прикреплять файлы к сообщениям
Вы не можете скачивать файлы