Любители / Магнаты / Воротилы / The Amateurs / The Moguls (Майкл Трагер / Michael Traeger) [2005, США, Германия, комедия, BDRip 720p] MVO (R5) + DVO + AVO (Сербин) + Sub (Rus, Eng) + Original Eng

Ответить на тему
 
Автор Сообщение

user ®

Стаж: 7 лет 7 месяцев

Сообщений: 20008

Пост Пост: #1 от 26-Сен-2014 05:35

[Цитировать]

Любители / Магнаты / Воротилы
The Amateurs / The Moguls- Страна: США, Германия
Студия: First Look International, N1 European Film Produktions GmbH & Co. KG, Qwerty Films, Raygun Productio
Жанр: комедия
Год выпуска: 2005
Продолжительность: 01:38:22-Перевод: Профессиональный (многоголосый закадровый) R5
Перевод 2: Профессиональный (двухголосый закадровый)
Перевод 3: Авторский (одноголосый закадровый) Сербин
Cубтитры: русские, английские
Оригинальная аудиодорожка: английский
Режиссер: Майкл Трагер / Michael Traeger-В ролях: Джефф Бриджес (Andy Sargentee), Тим Блейк Нельсон (Barney Macklehatton), Джо Пантольяно (Some Idiot), Тед Дэнсон (Moose), Уильям Фихтнер (Otis), Патрик Фьюджит (Emmett), Джон Хоукс (Moe), Брэд Уильям Хенке (Ron), Доун Дидавик (Clara), Гленн Хедли (Helen Tatelbaum), Том Бауэр (Floyd), Джейн Тэйни (Mrs. Morrelli), Лорен Грэм (Peggy), Джинн Трипплхорн (Thelma), Алекс Д. Линц (Billy), Исайя Вашингтон (Homer), Стивен Уэбер (Howard), Мелинда Даль (Charlene Pike), Валери Перрайн (V), Джуди Грир (Ellie), Фиона Хантер (Veronica), Айлин Бреннан (Mrs. Cherkiss), Майк Байндер (Andy's Boss), Трой Бренна (Ernest G. Pike), Брэд Гэррет (Wally), Элден Хенсон (Salesman), Глория ЛеРой (Mrs. Mendelson), Альдо Биганте (Jack), Норм О’Нилл (Clara's Man), Стюарт Балм (Cliff), Элиот Кэйтс (Reverend), Джесси МакКормак (Beauty Customer), Линда Джей (Beauty Customer), Ричард Вульф (Boy at Concession Stand)
Описание: Энди живет в маленьком американском городке, где почти все жители - друзья. Жизнь у Энди не ладится: работы нет, жена ушла, забрав с собой сына, и нашла нового богатого мужа. А Энди даже не может позволить себе купить сыну на день рождения хороший подарок. Чтобы как-то исправить ситуацию, а заодно и развлечься, наш герой решает снять вместе с друзьями порнофильм...
Доп. информация:
за предоставленные переводы спасибо [url=http://***/forum/viewtopic.php?t=4829787]Vouka[/url]
Релиз от: Mediaclub
Автор: Odessit-Сэмпл: скачать
Тип релиза: BDRip 720p
Контейнер: MKV
Видео: MPEG-4 AVC, 7500 Кбит/с, 1280x720, 23.976 кадр/с
Аудио: Russian: 48 kHz/24-bit, DTS 5.1, ~755.00 kbps avg - MVO
Аудио 2: Russian: 48 kHz/16-bit, AC3 2.0, ~192.00 kbps avg - DVO
Аудио 3: Russian: 48 kHz/24-bit, DTS 5.1, ~768.00 kbps avg - AVO
Аудио 4: English: 48 kHz/24-bit, DTS 5.1, ~768.00 kbps avg - ENG
Формат субтитров: softsub (SRT)
MediaInfo
Общее
Уникальный идентификатор : 247987812899828861927873780673409860747 (0xBA90B72916460E67A8879365F16E448B)
Полное имя : C:\Documents and Settings\User\Рабочий стол\Новая папка (2)\The.Amateurs.2005.X264.BDRip.(720p).mkv
Формат : Matroska
Версия формата : Version 4 / Version 2
Размер файла : 6,86 Гбайт
Продолжительность : 1 ч. 38 м.
Общий поток : 9981 Кбит/сек
Название фильма : Encode by Odessit
Дата кодирования : UTC 2014-09-24 15:59:18
Программа кодирования : mkvmerge v6.3.0 ('You can't stop me!') built on Jun 28 2013 20:09:41
Библиотека кодирования : libebml v1.3.0 + libmatroska v1.4.0
Видео
Идентификатор : 1
Формат : AVC
Формат/Информация : Advanced Video Codec
Профиль формата : High@L4.1
Параметр CABAC формата : Да
Параметр ReFrames формата : 9 кадров
Идентификатор кодека : V_MPEG4/ISO/AVC
Продолжительность : 1 ч. 38 м.
Битрейт : 7500 Кбит/сек
Ширина : 1280 пикселей
Высота : 720 пикселей
Соотношение сторон : 16:9
Режим частоты кадров : Постоянный
Частота кадров : 23,976 кадра/сек
Цветовое пространство : YUV
Субдискретизация насыщенности : 4:2:0
Битовая глубина : 8 бит
Тип развёртки : Прогрессивная
Бит/(Пиксели*Кадры) : 0.339
Размер потока : 5,02 Гбайт (73%)
Библиотека кодирования : x264 core 142 r2409+42 04be48a tMod [8-bit@all X86_64]
Настройки программы : cabac=1 / ref=9 / deblock=1:-3:-3 / analyse=0x3:0x133 / me=tesa / subme=10 / psy=1 / fade_compensate=0.00 / psy_rd=0.95:0.05 / mixed_ref=1 / me_range=32 / chroma_me=1 / trellis=2 / 8x8dct=1 / cqm=0 / deadzone=21,11 / fast_pskip=0 / chroma_qp_offset=-3 / threads=6 / lookahead_threads=1 / sliced_threads=0 / nr=0 / decimate=0 / interlaced=0 / bluray_compat=0 / constrained_intra=0 / fgo=0 / bframes=9 / b_pyramid=2 / b_adapt=2 / b_bias=0 / direct=3 / weightb=1 / open_gop=0 / weightp=2 / keyint=250 / keyint_min=23 / scenecut=40 / intra_refresh=0 / rc=2pass / mbtree=0 / bitrate=7500 / ratetol=1.0 / qcomp=0.70 / qpmin=0:0:0 / qpmax=69:69:69 / qpstep=4 / cplxblur=20.0 / qblur=0.5 / ip_ratio=1.40 / pb_ratio=1.30 / aq=3:1.00 / aq-sensitivity=10.00 / aq-factor=1.00:1.00:1.00 / aq2=0 / aq3=0
Язык : English
Default : Да
Forced : Нет
Аудио #1
Идентификатор : 2
Формат : DTS
Формат/Информация : Digital Theater Systems
Режим : 16
Параметр Endianness формата : Big
Идентификатор кодека : A_DTS
Продолжительность : 1 ч. 38 м.
Вид битрейта : Постоянный
Битрейт : 755 Кбит/сек
Каналы : 6 каналов
Расположение каналов : Front: L C R, Side: L R, LFE
Частота : 48,0 КГц
Битовая глубина : 24 бит
Метод сжатия : С потерями
Размер потока : 531 Мбайт (8%)
Заголовок : Многоголосый закадровый - R5
Язык : Russian
Default : Да
Forced : Нет
Аудио #2
Идентификатор : 3
Формат : AC-3
Формат/Информация : Audio Coding 3
Расширение режима : CM (complete main)
Параметр Endianness формата : Big
Идентификатор кодека : A_AC3
Продолжительность : 1 ч. 38 м.
Вид битрейта : Постоянный
Битрейт : 192 Кбит/сек
Каналы : 2 канала
Расположение каналов : Front: L R
Частота : 48,0 КГц
Битовая глубина : 16 бит
Метод сжатия : С потерями
Размер потока : 135 Мбайт (2%)
Заголовок : Двухголосый закадровый
Язык : Russian
Default : Нет
Forced : Нет
Аудио #3
Идентификатор : 4
Формат : DTS
Формат/Информация : Digital Theater Systems
Режим : 16
Параметр Endianness формата : Big
Идентификатор кодека : A_DTS
Продолжительность : 1 ч. 38 м.
Вид битрейта : Постоянный
Битрейт : 768 Кбит/сек
Каналы : 6 каналов
Расположение каналов : Front: L C R, Side: L R, LFE
Частота : 48,0 КГц
Битовая глубина : 24 бит
Метод сжатия : С потерями
Размер потока : 540 Мбайт (8%)
Заголовок : Ю.Сербин
Язык : Russian
Default : Нет
Forced : Нет
Аудио #4
Идентификатор : 5
Формат : DTS
Формат/Информация : Digital Theater Systems
Режим : 16
Параметр Endianness формата : Big
Идентификатор кодека : A_DTS
Продолжительность : 1 ч. 38 м.
Вид битрейта : Постоянный
Битрейт : 768 Кбит/сек
Каналы : 6 каналов
Расположение каналов : Front: L C R, Side: L R, LFE
Частота : 48,0 КГц
Битовая глубина : 24 бит
Метод сжатия : С потерями
Размер потока : 540 Мбайт (8%)
Язык : English
Default : Нет
Forced : Нет
Текст #1
Идентификатор : 6
Формат : UTF-8
Идентификатор кодека : S_TEXT/UTF8
Идентификатор кодека/Информация : UTF-8 Plain Text
Заголовок : by Vouka
Язык : Russian
Default : Нет
Forced : Нет
Текст #2
Идентификатор : 7
Формат : UTF-8
Идентификатор кодека : S_TEXT/UTF8
Идентификатор кодека/Информация : UTF-8 Plain Text
Заголовок : SDH
Язык : English
Default : Нет
Forced : Нет
Меню
00:00:00.000 : :Chapter 01
00:14:11.016 : :Chapter 02
00:19:54.151 : :Chapter 03
00:26:47.897 : :Chapter 04
00:35:17.824 : :Chapter 05
00:40:04.443 : :Chapter 06
00:44:07.603 : :Chapter 07
00:50:56.052 : :Chapter 08
00:59:23.935 : :Chapter 09
01:18:04.845 : :Chapter 10
01:23:31.171 : :Chapter 11
01:33:25.600 : :Chapter 12
01:38:20.895 : :Chapter 13
Скриншоты
Скачать

Скачать торрент!

Как скачивать? · Что такое торрент? · Рейтинг и ограничения

Сайт не распространяет и не хранит электронные версии произведений, а лишь предоставляет доступ к создаваемому пользователями каталогу ссылок на торрент-файлы, которые содержат только списки хеш-сумм

[Профиль] [ЛС]
Показать сообщения:    
Ответить на тему

Текущее время: Сегодня 04:09

Часовой пояс: GMT + 4



Вы не можете начинать темы
Вы не можете отвечать на сообщения
Вы не можете редактировать свои сообщения
Вы не можете удалять свои сообщения
Вы не можете голосовать в опросах
Вы не можете прикреплять файлы к сообщениям
Вы не можете скачивать файлы