Терминатор: Да придёт спаситель / Terminator Salvation (МакДжи / McG) [2009, США, фантастика, боевик, BDRip 1080p] [Режиссерская версия] Dub + MVO (Киномания) + 3x (Гаврилов, Сербин, Горчаков) + Dub (Ukr) + Sub Rus, Eng + Original Eng

Ответить на тему
 
Автор Сообщение

user ®

Стаж: 7 лет 7 месяцев

Сообщений: 20008

Пост Пост: #1 от 26-Сен-2014 05:35

[Цитировать]

Терминатор: Да придёт спаситель / Терминатор 4: Спасение / Terminator Salvation / Режиссерская версия / Director's Cut
Страна: США, Германия, Великобритания, Италия
Жанр: фантастика, боевик, постапокалипсис
Год выпуска: 2009
Продолжительность: 01:57:31
-
Перевод 1: Профессиональный (дублированный) со вставками DVO (Позитив-Мультимедиа)
Перевод 2: Профессиональный (многоголосый закадровый) Киномания
Перевод 3: Авторский (одноголосый закадровый) Андрей Гаврилов
Перевод 4: Авторский (одноголосый закадровый) Юрий Сербин
Перевод 5: Авторский (одноголосый закадровый) Василий Горчаков
Cубтитры: русские (форсированные для 1-ой дорожки (предыстория и надписи) и форсированные для 6-ой дорожки и полные) и английские (полные и SDH)
Оригинальная аудиодорожка: английский
-
Режиссер: МакДжи / McG
В ролях: Кристиан Бэйл, Сэм Уортингтон, Мун Бладгуд, Хелена Бонем Картер, Антон Ельчин, Джадагрейс, Брайс Даллас Ховард, Коммон, Джейн Александр, Майкл Айронсайд
-
Описание: 2018 год от рождества Христова. Джон Коннор — человек, чья судьба — возглавить Сопротивление электронному мозгу Скайнет и армии Терминаторов. Но в будущее, с верой в которое он возвращен, вклинивается таинственный Маркус Райт: незнакомец, чьи последние воспоминания рисуют камеру смертников.Коннор должен понять, кто такой Маркус — посланник будущего или спасшийся из прошлого. И на фоне подготовки Скайнетом решающего удара, Коннор и Райт отправляются в путешествие, приводящее их в самую сердцевину взбунтовавшейся операционной системы, где открывается ужасная тайна, кроющаяся за потенциальным уничтожением человечества.
-

-
Сэмпл: https://www.sendspace.com/file/sn51pk
-
Тип релиза: BDRip 1080p
Контейнер: MKV
Видео: 1 920x800p (2.40:1), 23.976 fps, 14.0 Mbps
Аудио 1: русский / AC3 / 5.1 / 48 kHz / 448 Kbps / 16 bit || DUB + DVO
Аудио 2: русский / AC3 / 5.1 / 48 kHz / 448 Kbps / 16 bit || MVO
Аудио 3: русский / DTS / 5.1 / 48 kHz / 1 509 Kbps / 24 bit || AVO
Аудио 4: русский / DTS / 5.1 / 48 kHz / 1 509 Kbps / 24 bit || AVO
Аудио 5: русский / DTS / 5.1 / 48 kHz / 1 509 Kbps / 24 bit || AVO
Аудио 6: украинский / AC3 / 5.1 / 48 kHz / 384 Kbps / 16 bit || DUB (UKR)
Аудио 7: английский / DTS / 5.1 / 48 kHz / 1 509 Kbps / 24 bit || ENG
Формат субтитров: softsub (SRT)
Главы: есть
Доп. информация
Рип от New Team (взято только видео), субтитры от HQClub (русские были с рассинхроном-подогнал) английские субтитры (полные) взяты из сети, зв. дорожки 1 - [url=http://***/forum/viewtopic.php?t=3213805]http://***/forum/viewtopic.php?t=3213805[/url], 3 - [url=http://***/forum/viewtopic.php?t=3570311]http://***/forum/viewtopic.php?t=3570311[/url], 2,4-7 - [url=http://***/forum/viewtopic.php?t=3097947]http://***/forum/viewtopic.php?t=3097947[/url] (ядра из HD-звука вытащил с помощью eac3to) для дорожек 1 - выставлена необходимая задержка. Эту дорожку [url=http://***/forum/viewtopic.php?t=4284897]http://***/forum/viewtopic.php?t=4284897[/url] не стал добавлять, т.к. при сборке с ней mkvmerge GUI выдает ошибку типа warning DTS header problem (такая же проблема как здесь с Живовым [url=http://***/forum/viewtopic.php?t=1765353)]http://***/forum/viewtopic.php?t=1765353)[/url] Авторам спасибо.
MediaInfo
General
Unique ID : 191985844674361314723458129499908757216 (0x906F20F382D09E4999D2AE96FFDC56E0)
Complete name : C:\Users\ALEX\Downloads\Фильмы\HD\Terminator Salvation.Director's cut.2009.BDRip.1080p.5xRus.Ukr.Eng.Subs.Chpt.mkv
Format : Matroska
Format version : Version 4 / Version 2
File size : 17.5 GiB
Duration : 1h 57mn
Overall bit rate : 21.3 Mbps
Encoded date : UTC 2014-09-25 11:46:24
Writing application : mkvmerge v6.6.0 ('The Edge Of The In Between') built on Dec 1 2013 17:55:00
Writing library : libebml v1.3.0 + libmatroska v1.4.1
Video
ID : 1
Format : AVC
Format/Info : Advanced Video Codec
Format profile : High@L4.1
Format settings, CABAC : Yes
Format settings, ReFrames : 4 frames
Codec ID : V_MPEG4/ISO/AVC
Duration : 1h 57mn
Bit rate : 14.0 Mbps
Width : 1 920 pixels
Height : 800 pixels
Display aspect ratio : 2.40:1
Frame rate mode : Constant
Frame rate : 23.976 fps
Color space : YUV
Chroma subsampling : 4:2:0
Bit depth : 8 bits
Scan type : Progressive
Bits/(Pixel*Frame) : 0.380
Stream size : 11.1 GiB (64%)
Title : New Team
Writing library : x264 core 132 r2310 76a5c3a
Encoding settings : cabac=1 / ref=4 / deblock=1:-3:-3 / analyse=0x3:0x113 / me=umh / subme=10 / psy=1 / psy_rd=1.00:0.15 / mixed_ref=1 / me_range=48 / chroma_me=1 / trellis=2 / 8x8dct=1 / cqm=0 / deadzone=21,11 / fast_pskip=0 / chroma_qp_offset=-3 / threads=3 / lookahead_threads=1 / sliced_threads=0 / nr=0 / decimate=0 / interlaced=0 / bluray_compat=0 / constrained_intra=0 / bframes=6 / b_pyramid=2 / b_adapt=2 / b_bias=0 / direct=3 / weightb=1 / open_gop=0 / weightp=2 / keyint=240 / keyint_min=24 / scenecut=40 / intra_refresh=0 / rc_lookahead=60 / rc=2pass / mbtree=0 / bitrate=14000 / ratetol=1.0 / qcomp=0.65 / qpmin=0 / qpmax=69 / qpstep=4 / cplxblur=20.0 / qblur=0.5 / vbv_maxrate=40000 / vbv_bufsize=30000 / nal_hrd=none / ip_ratio=1.40 / pb_ratio=1.30 / aq=1:0.80
Language : English
Default : Yes
Forced : No
Audio #1
ID : 2
Format : AC-3
Format/Info : Audio Coding 3
Mode extension : CM (complete main)
Format settings, Endianness : Big
Codec ID : A_AC3
Duration : 1h 57mn
Bit rate mode : Constant
Bit rate : 448 Kbps
Channel(s) : 6 channels
Channel positions : Front: L C R, Side: L R, LFE
Sampling rate : 48.0 KHz
Bit depth : 16 bits
Compression mode : Lossy
Stream size : 377 MiB (2%)
Title : DUB со вставками DVO (Позитив-Мультимедиа)
Language : Russian
Default : Yes
Forced : No
Audio #2
ID : 3
Format : AC-3
Format/Info : Audio Coding 3
Mode extension : CM (complete main)
Format settings, Endianness : Big
Codec ID : A_AC3
Duration : 1h 57mn
Bit rate mode : Constant
Bit rate : 448 Kbps
Channel(s) : 6 channels
Channel positions : Front: L C R, Side: L R, LFE
Sampling rate : 48.0 KHz
Bit depth : 16 bits
Compression mode : Lossy
Stream size : 377 MiB (2%)
Title : MVO (Киномания)
Language : Russian
Default : No
Forced : No
Audio #3
ID : 4
Format : DTS
Format/Info : Digital Theater Systems
Mode : 16
Format settings, Endianness : Big
Codec ID : A_DTS
Duration : 1h 57mn
Bit rate mode : Constant
Bit rate : 1 509 Kbps
Channel(s) : 6 channels
Channel positions : Front: L C R, Side: L R, LFE
Sampling rate : 48.0 KHz
Bit depth : 24 bits
Compression mode : Lossy
Stream size : 1.24 GiB (7%)
Title : AVO (Андрей Гаврилов)
Language : Russian
Default : No
Forced : No
Audio #4
ID : 5
Format : DTS
Format/Info : Digital Theater Systems
Mode : 16
Format settings, Endianness : Big
Codec ID : A_DTS
Duration : 1h 57mn
Bit rate mode : Constant
Bit rate : 1 509 Kbps
Channel(s) : 6 channels
Channel positions : Front: L C R, Side: L R, LFE
Sampling rate : 48.0 KHz
Bit depth : 24 bits
Compression mode : Lossy
Stream size : 1.24 GiB (7%)
Title : AVO (Юрий Сербин)
Language : Russian
Default : No
Forced : No
Audio #5
ID : 6
Format : DTS
Format/Info : Digital Theater Systems
Mode : 16
Format settings, Endianness : Big
Codec ID : A_DTS
Duration : 1h 57mn
Bit rate mode : Constant
Bit rate : 1 509 Kbps
Channel(s) : 6 channels
Channel positions : Front: L C R, Side: L R, LFE
Sampling rate : 48.0 KHz
Bit depth : 24 bits
Compression mode : Lossy
Stream size : 1.24 GiB (7%)
Title : AVO (Василий Горчаков)
Language : Russian
Default : No
Forced : No
Audio #6
ID : 7
Format : AC-3
Format/Info : Audio Coding 3
Mode extension : CM (complete main)
Format settings, Endianness : Big
Codec ID : A_AC3
Duration : 1h 57mn
Bit rate mode : Constant
Bit rate : 384 Kbps
Channel(s) : 6 channels
Channel positions : Front: L C R, Side: L R, LFE
Sampling rate : 48.0 KHz
Bit depth : 16 bits
Compression mode : Lossy
Stream size : 323 MiB (2%)
Title : DUB
Language : Ukrainian
Default : No
Forced : No
Audio #7
ID : 8
Format : DTS
Format/Info : Digital Theater Systems
Mode : 16
Format settings, Endianness : Big
Codec ID : A_DTS
Duration : 1h 57mn
Bit rate mode : Constant
Bit rate : 1 509 Kbps
Channel(s) : 6 channels
Channel positions : Front: L C R, Side: L R, LFE
Sampling rate : 48.0 KHz
Bit depth : 24 bits
Compression mode : Lossy
Stream size : 1.24 GiB (7%)
Title : Original
Language : English
Default : No
Forced : No
Text #1
ID : 9
Format : UTF-8
Codec ID : S_TEXT/UTF8
Codec ID/Info : UTF-8 Plain Text
Title : Forced для рус. дубляжа
Language : Russian
Default : Yes
Forced : No
Text #2
ID : 10
Format : UTF-8
Codec ID : S_TEXT/UTF8
Codec ID/Info : UTF-8 Plain Text
Title : Forced для укр. дубляжа
Language : Russian
Default : No
Forced : No
Text #3
ID : 11
Format : UTF-8
Codec ID : S_TEXT/UTF8
Codec ID/Info : UTF-8 Plain Text
Title : Full
Language : Russian
Default : No
Forced : No
Text #4
ID : 12
Format : UTF-8
Codec ID : S_TEXT/UTF8
Codec ID/Info : UTF-8 Plain Text
Title : Full
Language : English
Default : No
Forced : No
Text #5
ID : 13
Format : UTF-8
Codec ID : S_TEXT/UTF8
Codec ID/Info : UTF-8 Plain Text
Title : SDH
Language : English
Default : No
Forced : No
Menu
00:00:00.000 : :Chapter 01
00:04:11.626 : :Chapter 02
00:14:43.757 : :Chapter 03
00:21:53.270 : :Chapter 04
00:29:56.377 : :Chapter 05
00:35:10.024 : :Chapter 06
00:41:51.717 : :Chapter 07
00:51:53.401 : :Chapter 08
00:58:35.553 : :Chapter 09
01:08:16.925 : :Chapter 10
01:17:40.738 : :Chapter 11
01:25:28.539 : :Chapter 12
01:33:14.004 : :Chapter 13
01:37:33.972 : :Chapter 14
01:41:38.216 : :Chapter 15
01:45:32.325 : :Chapter 16
Скриншоты
Скачать

Скачать торрент!

Как скачивать? · Что такое торрент? · Рейтинг и ограничения

Сайт не распространяет и не хранит электронные версии произведений, а лишь предоставляет доступ к создаваемому пользователями каталогу ссылок на торрент-файлы, которые содержат только списки хеш-сумм

[Профиль] [ЛС]
Показать сообщения:    
Ответить на тему

Текущее время: Сегодня 13:41

Часовой пояс: GMT + 4



Вы не можете начинать темы
Вы не можете отвечать на сообщения
Вы не можете редактировать свои сообщения
Вы не можете удалять свои сообщения
Вы не можете голосовать в опросах
Вы не можете прикреплять файлы к сообщениям
Вы не можете скачивать файлы