Человек ноября / The November Man (Роджер Дональдсон / Roger Donaldson) [2014, США, боевик, триллер, криминал, HDRip] Dub [CAMRip] + Eng

Ответить на тему
 
Автор Сообщение

user ®

Стаж: 7 лет 11 месяцев

Сообщений: 20008

Пост Пост: #1 от 26-Сен-2014 05:35

[Цитировать]

Человек ноября / The November Man Страна: США
Жанр: боевик, триллер, криминал
Год выпуска: 2014
Продолжительность: 01:43:12
Перевод: Профессиональный (дублированный) звук c CAMRip
Оригинальная аудиодорожка: английский
Режиссер: Роджер Дональдсон / Roger Donaldson
В ролях: Пирс Броснан, Люк Брейси, Ольга Куриленко, Билл Смитрович, Амила Терзимехик, Лазар Ристовски, Медиха Муслиович, Элайза Тейлор, Катерина Скорсоне, Аки Котабе
Описание: Экс-агент ЦРУ, невольно вернувшись в дело, оказывается в эпицентре международной интриги, затеянной главами разведывательного управления. В их планах — внедрение во внутреннюю политику стран Восточной Европы через кандидата в президенты РФ с помощью шантажа грязным прошлым. На его совести — вторая вспышка войны на Северном Кавказе, жертвы, насилие. Но Питер Дэверо разгадывает тайны нечестной игры …
http://multi-up.com/1001489
Качество видео: HDRip
Формат видео: AVI
Видео: 720 x 304, (2,35:1), 25.000 fps, XviD, 1577 Кбит/сек
Аудио: 44.1 kHz, MPEG Layer 3, 2 ch, 128 Кбит/сек
Аудио: 48 kHz, Audio Coding 3, 2 ch, 192 Кбит/сек
MediaInfo
Формат : AVI
Формат/Информация : Audio Video Interleave
Размер файла : 1,38 Гбайт
Продолжительность : 1 ч. 43 м.
Общий поток : 1911 Кбит/сек
Программа кодирования : VirtualDubMod 1.5.10.2 (build 2542/release)
Библиотека кодирования : VirtualDubMod build 2542/release
Видео
Идентификатор : 0
Формат : MPEG-4 Visual
Профиль формата : Advanced Simple@L5
Параметр BVOP формата : 2
Параметр QPel формата : Нет
Параметр GMC формата : Без точки перехода
Параметр матрицы формата : Default (H.263)
Режим смешивания : Сжатый битовый поток
Идентификатор кодека : XVID
Идентификатор кодека/Подсказка : XviD
Продолжительность : 1 ч. 43 м.
Битрейт : 1577 Кбит/сек
Ширина : 720 пикселей
Высота : 304 пикселя
Соотношение сторон : 2,35:1
Частота кадров : 25,000 кадров/сек
Цветовое пространство : YUV
Субдискретизация насыщенности : 4:2:0
Битовая глубина : 8 бит
Тип развёртки : Прогрессивная
Метод сжатия : С потерями
Бит/(Пиксели*Кадры) : 0.288
Размер потока : 1,14 Гбайт (83%)
Библиотека кодирования : XviD 64
Аудио #1
Идентификатор : 1
Формат : MPEG Audio
Версия формата : Version 1
Профиль формата : Layer 3
Идентификатор кодека : 55
Идентификатор кодека/Подсказка : MP3
Продолжительность : 1 ч. 43 м.
Вид битрейта : Постоянный
Битрейт : 128 Кбит/сек
Каналы : 2 канала
Частота : 44,1 КГц
Метод сжатия : С потерями
Задержка видео : 21 мс.
Размер потока : 94,5 Мбайт (7%)
Выравнивание : Разделение по промежуткам
Продолжительность промежутка : 40 мс. (1,00 видеокадр)
Время предзагрузки промежутка : 500 мс.
Аудио #2
Идентификатор : 2
Формат : AC-3
Формат/Информация : Audio Coding 3
Расширение режима : CM (complete main)
Параметр Endianness формата : Big
Идентификатор кодека : 2000
Продолжительность : 1 ч. 43 м.
Вид битрейта : Постоянный
Битрейт : 192 Кбит/сек
Каналы : 2 канала
Расположение каналов : Front: L R
Частота : 48,0 КГц
Битовая глубина : 16 бит
Метод сжатия : С потерями
Размер потока : 142 Мбайт (10%)
Выравнивание : Разделение по промежуткам
Продолжительность промежутка : 40 мс. (1,00 видеокадр)
Время предзагрузки промежутка : 500 мс.
Скриншоты
Скачать

Скачать торрент!

Как скачивать? · Что такое торрент? · Рейтинг и ограничения

Сайт не распространяет и не хранит электронные версии произведений, а лишь предоставляет доступ к создаваемому пользователями каталогу ссылок на торрент-файлы, которые содержат только списки хеш-сумм

[Профиль] [ЛС]
Показать сообщения:    
Ответить на тему

Текущее время: Сегодня 01:29

Часовой пояс: GMT + 4



Вы не можете начинать темы
Вы не можете отвечать на сообщения
Вы не можете редактировать свои сообщения
Вы не можете удалять свои сообщения
Вы не можете голосовать в опросах
Вы не можете прикреплять файлы к сообщениям
Вы не можете скачивать файлы