Безумная свадьба / Qu\'est-ce qu\'on a fait au Bon Dieu? (Филипп де Шоврон / Philippe de Chauveron) [2014, Франция, Комедия, HDRip] Dub (Line)

Ответить на тему
 
Автор Сообщение

user ®

Стаж: 7 лет 7 месяцев

Сообщений: 20008

Пост Пост: #1 от 25-Сен-2014 19:15

[Цитировать]

Безумная свадьба / Qu'est-ce qu'on a fait au Bon Dieu?
Страна: Франция
Жанр: Комедия
Год выпуска: 2014
Продолжительность: 01:36:52
Перевод: Профессиональный (дублированный) Line
Cубтитры: нет
Оригинальная аудиодорожка: нет
Режиссёр: Филипп де Шоврон / Philippe de Chauveron
В ролях: Кристиан Клавье, Шанталь Лоби, Эри Абиттан, Меди Садун, Фредерик Шо, Нум Дьявара, Фредерик Бель, Джулия Пьятон, Эмили Кан, Элоди Фонтан
Описание: Главные герои фильма, мсье Верней и его жена - добропорядочная буржуазная французская супружеская пара, родители четырех красавиц-дочерей. Как известно, основная проблема всех подобных семей - выдать дочек замуж, чтобы не засиделись в девках. У семейства Верней такой проблемы нет. Три дочери уже нашли своё счастье, вот только мужья, по мнению родителей, подкачали: один - китаец, другой - араб, третий - еврей… Пришло время, и четвёртая дочь сообщает радостную весть: она тоже выходит замуж! И её жених - католик, зовут его Шарль, но он... чернокожий.

Качество видео: HDRip [Исходник: BDRip (1080p)]
Формат видео: AVI
Видео: XviD, 656x352 (1.85:1), 939 Кбит/с, 24 кадр/с
Аудио: Русский, MP3, 48000 Гц, 128 Кбит/с, 2 канала (Стерео)

Автор рипа - ivandubskoj
Знаете ли вы, что...
• В картине огромное количество отсылок к фильму Жерара Ури «Приключения раввина Якова» (1973), повествующем о французском буржуа-расисте, втянутом в арабский революционный конфликт. Когда Изобель звонит Давиду, на рингтоне его телефона - главная тема из «Раввина Якова». Кроме того, по сюжету «Раввина Якова» жена героя Луи де Фюнеса - вечно говорящая по телефону дантистка, оставляющая инструменты во ртах клиентов, как и Изобель. За рождественским ужином герои обсуждают роль Луи де Фюнеса в том же фильме, а господина, который здоровается в церкви с Клодом и его семьей, в оригинале зовут мсье Жерар Ури.
• Когда Клод и Мари собираются поехать на машине по магазинам, чтобы подготовиться к Рождеству, позади их машины можно заметить людей в летней одежде, блуждающих по городу.
MediaInfo
General
Complete name : Bezumnaya.Svad'ba.2014.HDRip.745Mb.avi
Format : AVI
Format/Info : Audio Video Interleave
File size : 745 MiB
Duration : 1h 36mn
Overall bit rate : 1 076 Kbps
Writing application : VirtualDubMod 1.5.10.3 | www.virtualdub-fr.org || (build 2550/release)
Writing library : VirtualDubMod build 2550/release
Video
ID : 0
Format : MPEG-4 Visual
Format profile : Advanced Simple@L5
Format settings, BVOP : 2
Format settings, QPel : No
Format settings, GMC : No warppoints
Format settings, Matrix : Custom
Codec ID : XVID
Codec ID/Hint : XviD
Duration : 1h 36mn
Bit rate : 939 Kbps
Width : 656 pixels
Height : 352 pixels
Display aspect ratio : 1.85:1
Frame rate : 24.000 fps
Color space : YUV
Chroma subsampling : 4:2:0
Bit depth : 8 bits
Scan type : Progressive
Compression mode : Lossy
Bits/(Pixel*Frame) : 0.169
Stream size : 650 MiB (87%)
Writing library : XviD 73
Audio
ID : 1
Format : MPEG Audio
Format version : Version 1
Format profile : Layer 3
Codec ID : 55
Codec ID/Hint : MP3
Duration : 1h 36mn
Bit rate mode : Constant
Bit rate : 128 Kbps
Channel(s) : 2 channels
Sampling rate : 48.0 KHz
Compression mode : Lossy
Stream size : 88.7 MiB (12%)
Alignment : Aligned on interleaves
Interleave, duration : 42 ms (1.00 video frame)
Interleave, preload duration : 504 ms
Writing library : LAME3.99r
Encoding settings : -m s -V 4 -q 0 -lowpass 17 -b 128
Скриншот c названием фильма Скриншоты
Скачать

Скачать торрент!

Как скачивать? · Что такое торрент? · Рейтинг и ограничения

Сайт не распространяет и не хранит электронные версии произведений, а лишь предоставляет доступ к создаваемому пользователями каталогу ссылок на торрент-файлы, которые содержат только списки хеш-сумм

[Профиль] [ЛС]
Показать сообщения:    
Ответить на тему

Текущее время: Сегодня 08:40

Часовой пояс: GMT + 4



Вы не можете начинать темы
Вы не можете отвечать на сообщения
Вы не можете редактировать свои сообщения
Вы не можете удалять свои сообщения
Вы не можете голосовать в опросах
Вы не можете прикреплять файлы к сообщениям
Вы не можете скачивать файлы