Посвященный / The Giver (Филлип Нойс / Phillip Noyce) [2014, США, фантастика, драма, WEB-DLRip] Dub [iTunes]

Ответить на тему
 
Автор Сообщение

user ®

Стаж: 7 лет 7 месяцев

Сообщений: 20008

Пост Пост: #1 от 25-Сен-2014 12:55

[Цитировать]

Посвященный / The Giver
«Он избран вернуть Судьбу»
- Год выхода: 2014
Жанр: фантастика, драма
Выпущено: США / As Is Productions, Tonik Productions, Walden Media
Продолжительность: 01:37:12
Озвучивание: Профессиональный (дублированный) [iTunes]
Субтитры: нет
Оригинальная аудиодорожка: нет
Режиссер: Филлип Нойс / Phillip Noyce- -В главных ролях:
Брентон Туэйтс (Jonas), Джефф Бриджес (The Giver), Мэрил Стрип (Chief Elder), Одейя Раш (Fiona), Кэти Холмс (Mother), Александр Скарсгард (Father), Камерон Монахэн (Asher), Тейлор Свифт (Rosemary), Ренате Стуурман (Dinah), Джон Уайтели (Elder), Катарина Дэмм (Nurturer), Ванесса Кук (Elder), и др.
О фильме:
Фильм по одноимённому роману Лоис Лоури. Когда-то в будущем люди живут в идеальном мире без войн, болезней и преступности, без социальных и расовых конфликтов. Но для этого людям пришлось отказаться от эмоций, страсти, радости и любви. В этом мире живёт Джонас, которого в 12-летнем возрасте выбирают Хранителем воспоминаний. Старец по имени Даритель передаёт Джонасу свои знания об истинной природе человеческой души и сложностях человеческих отношений. Джонас начинает понимать, в каком искусственном мире он живёт и встаёт перед выбором своей дальнейшей судьбы.
Премьера (мир): 11 августа 2014
Премьера (РФ): 21 августа 2014, «Парадиз»
Релиз на DVD и Blu-Ray: 21 октября 2014, «Парадиз / Активижен»
Автор рипа: ArtZak
Релиз от:

Качество видео: WEB-DLRip | Сэмпл
Формат видео: AVI
Видео: MPEG4, XviD, 720x304 (2.35:1), 24.000 fps, 907 Kbps (0.173 bit/pixel)
Аудио: MP3, 48.0 KHz, 2 ch, 160 Kbps, CBR
MI
General
Complete name                            : C:\downloads\The.Giver.2014.WEB-DLRip.745MB.iTunes_by_ArtZak.avi
Format                                   : AVI
Format/Info                              : Audio Video Interleave
File size                                : 748 MiB
Duration                                 : 1h 37mn
Overall bit rate                         : 1 076 Kbps
Writing application                      : VirtualDubMod 1.5.10.2 (build 2540/release)
Writing library                          : VirtualDubMod build 2540/release
Video
ID                                       : 0
Format                                   : MPEG-4 Visual
Format profile                           : Advanced Simple@L5
Format settings, BVOP                    : 1
Format settings, QPel                    : No
Format settings, GMC                     : No warppoints
Format settings, Matrix                  : Default (H.263)
Codec ID                                 : XVID
Codec ID/Hint                            : XviD
Duration                                 : 1h 37mn
Bit rate                                 : 907 Kbps
Width                                    : 720 pixels
Height                                   : 304 pixels
Display aspect ratio                     : 2.35:1
Frame rate                               : 24.000 fps
Color space                              : YUV
Chroma subsampling                       : 4:2:0
Bit depth                                : 8 bits
Scan type                                : Progressive
Compression mode                         : Lossy
Bits/(Pixel*Frame)                       : 0.173
Stream size                              : 630 MiB (84%)
Writing library                          : XviD 1.2.1 (UTC 2008-12-04)
Audio
ID                                       : 1
Format                                   : MPEG Audio
Format version                           : Version 1
Format profile                           : Layer 3
Codec ID                                 : 55
Codec ID/Hint                            : MP3
Duration                                 : 1h 37mn
Bit rate mode                            : Constant
Bit rate                                 : 160 Kbps
Channel count                            : 2 channels
Sampling rate                            : 48.0 KHz
Compression mode                         : Lossy
Stream size                              : 111 MiB (15%)
Alignment                                : Aligned on interleaves
Interleave, duration                     : 42 ms (1.00 video frame)
Interleave, preload duration             : 504 ms
Writing library                          : LAME3.98r
Encoding settings                        : -m s -V 4 -q 2 -lowpass 17.5 -b 160
Скриншоты - Посвященный (2014) смотреть онлайн
Скачать

Скачать торрент!

Как скачивать? · Что такое торрент? · Рейтинг и ограничения

Сайт не распространяет и не хранит электронные версии произведений, а лишь предоставляет доступ к создаваемому пользователями каталогу ссылок на торрент-файлы, которые содержат только списки хеш-сумм

[Профиль] [ЛС]
Показать сообщения:    
Ответить на тему

Текущее время: Сегодня 12:32

Часовой пояс: GMT + 4



Вы не можете начинать темы
Вы не можете отвечать на сообщения
Вы не можете редактировать свои сообщения
Вы не можете удалять свои сообщения
Вы не можете голосовать в опросах
Вы не можете прикреплять файлы к сообщениям
Вы не можете скачивать файлы