Одна миллиардная доля / Parts Per Billion (Брайан Хориути / Brian Horiuchi) [2014, США, фантастика, драма, BDRip 720p] MVO + Sub Eng + Original Eng

Ответить на тему
 
Автор Сообщение

user ®

Стаж: 7 лет 7 месяцев

Сообщений: 20008

Пост Пост: #1 от 25-Сен-2014 01:45

[Цитировать]

Одна миллиардная доля / Parts Per Billion
Страна: США
Жанр: фантастика, драма
Год выпуска: 2014
Продолжительность: 01:38:36
Перевод: Профессиональный (многоголосый закадровый)
Cубтитры: английские
Оригинальная аудиодорожка: английский
Режиссер: Брайан Хориути / Brian Horiuchi
В ролях: Розарио Доусон, Джош Хартнетт, Тереза Палмер, Алексис Бледел, Пенн Бэджли, Джина Роулендс, Фрэнк Ланджелла, Конор Лесли, Хилл Харпер, Нед Вон
Описание: Истории трёх влюбленных пар оказываются тесно переплетены из-за ужасной техногенной катастрофы, которая разлучила их. Теперь поступками Лена, Мии, Энди, Эстер, Анны и Эрика руководит любовь, но и она же делает их слепыми. Эти персонажи вовсе не идеальны, и у каждого из них есть недостатки, как, впрочем, и у любого из остальных шести миллиардов человек, каждый из которых теперь столкнулся с последствиями кошмарного биологического катаклизма.
Сэмпл: http://multi-up.com/1001028
Тип релиза: BDRip 720p
Контейнер: MKV
Видео: MPEG-4 AVC, 7013 kb/s, 1280x688, 23,976 fps
Аудио: Russian: АС3, 48000 Hz, 2 каналов, 192 kbit/s
Аудио 2: English: AC3 640 kb/s, 48000 Hz, 6 каналов
Формат субтитров: softsub (SRT)
MediaInfo
Format : Matroska
Format version : Version 4 / Version 2
File size : 5.70 GiB
Duration : 1h 41mn
Overall bit rate : 8 004 Kbps
Encoded date : UTC 2014-09-23 14:12:46
Writing application : mkvmerge v7.1.0 ('Good Love') 64bit built on Jul 27 2014 13:06:55
Writing library : libebml v1.3.0 + libmatroska v1.4.1
_STATISTICS_WRITING_APP : mkvmerge v7.1.0 ('Good Love') 64bit built on Jul 27 2014 13:06:55
_STATISTICS_WRITING_DATE_UTC : 2014-09-23 14:12:46
_STATISTICS_TAGS : BPS DURATION NUMBER_OF_FRAMES NUMBER_OF_BYTES
DURATION : 01:38:35.008000000
NUMBER_OF_FRAMES : 184844
NUMBER_OF_BYTES : 141960192
Video
ID : 1
Format : AVC
Format/Info : Advanced Video Codec
Format profile : High@L4.1
Format settings, CABAC : Yes
Format settings, ReFrames : 9 frames
Codec ID : V_MPEG4/ISO/AVC
Duration : 1h 41mn
Bit rate : 7 012 Kbps
Width : 1 280 pixels
Height : 688 pixels
Display aspect ratio : 1.85:1
Frame rate mode : Constant
Frame rate : 23.976 fps
Color space : YUV
Chroma subsampling : 4:2:0
Bit depth : 8 bits
Scan type : Progressive
Bits/(Pixel*Frame) : 0.332
Stream size : 4.99 GiB (88%)
Writing library : x264 core 68 r1195bm 5d75a9b
Encoding settings : cabac=1 / ref=9 / deblock=1:-1:-1 / analyse=0x3:0x113 / me=umh / subme=7 / psy_rd=0.0:2.0 / mixed_ref=1 / me_range=16 / chroma_me=1 / trellis=2 / 8x8dct=1 / cqm=0 / deadzone=21,11 / chroma_qp_offset=-2 / threads=1 / thread_queue=1 / nr=0 / decimate=1 / mbaff=0 / bframes=5 / b_pyramid=0 / b_adapt=1 / b_bias=0 / direct=1 / wpredb=1 / keyint=250 / keyint_min=25 / scenecut=40 / rc=crf / crf=16.0 / qcomp=0.60 / qpmin=10 / qpmax=51 / qpstep=4 / ip_ratio=1.40 / pb_ratio=1.30 / aq=2:1.00
Default : Yes
Forced : No
Audio #1
ID : 2
Format : AC-3
Format/Info : Audio Coding 3
Mode extension : CM (complete main)
Format settings, Endianness : Big
Codec ID : A_AC3
Duration : 1h 41mn
Bit rate mode : Constant
Bit rate : 192 Kbps
Channel(s) : 2 channels
Channel positions : Front: L R
Sampling rate : 48.0 KHz
Bit depth : 16 bits
Compression mode : Lossy
Stream size : 140 MiB (2%)
Language : Russian
Default : Yes
Forced : No
Audio #2
ID : 3
Format : AC-3
Format/Info : Audio Coding 3
Mode extension : CM (complete main)
Format settings, Endianness : Big
Codec ID : A_AC3
Duration : 1h 41mn
Bit rate mode : Constant
Bit rate : 640 Kbps
Channel(s) : 6 channels
Channel positions : Front: L C R, Side: L R, LFE
Sampling rate : 48.0 KHz
Bit depth : 16 bits
Compression mode : Lossy
Stream size : 467 MiB (8%)
Language : English
Default : No
Forced : No
Text
ID : 4
Format : UTF-8
Codec ID : S_TEXT/UTF8
Codec ID/Info : UTF-8 Plain Text
Language : English
Default : No
Forced : No
Menu
00:00:00.000 : en:1
00:04:35.000 : en:2
00:07:24.000 : en:3
00:12:02.000 : en:4
00:16:06.000 : en:5
00:22:48.000 : en:6
00:27:53.000 : en:7
00:36:33.000 : en:8
00:43:23.000 : en:9
00:47:54.000 : en:10
00:56:44.000 : en:11
01:05:47.000 : en:12
01:10:20.000 : en:13
01:14:16.000 : en:14
01:20:28.000 : en:15
01:26:40.000 : en:16
Скриншоты
Скачать

Скачать торрент!

Как скачивать? · Что такое торрент? · Рейтинг и ограничения

Сайт не распространяет и не хранит электронные версии произведений, а лишь предоставляет доступ к создаваемому пользователями каталогу ссылок на торрент-файлы, которые содержат только списки хеш-сумм

[Профиль] [ЛС]
Показать сообщения:    
Ответить на тему

Текущее время: Сегодня 11:58

Часовой пояс: GMT + 4



Вы не можете начинать темы
Вы не можете отвечать на сообщения
Вы не можете редактировать свои сообщения
Вы не можете удалять свои сообщения
Вы не можете голосовать в опросах
Вы не можете прикреплять файлы к сообщениям
Вы не можете скачивать файлы