Холостяки в отрыве / Сорванцы / Друганы / Les gamins (Энтони Марсиано / Anthony Marciano) [2013, Франция, комедия, BDRip 720p] VO (Бочаров) + MVO + Sub Eng + Original Fre

Ответить на тему
 
Автор Сообщение

user ®

Стаж: 7 лет 7 месяцев

Сообщений: 20008

Пост Пост: #1 от 25-Сен-2014 01:45

[Цитировать]

Сорванцы / Друганы / Les gamins
Страна: Франция
Жанр: комедия
Год выпуска: 2013
Продолжительность: 01:37:28
Перевод 1: Одноголосый закадровый - А.Бочаров
Перевод 2: Профессиональный (многоголосый закадровый) (Line)
Cубтитры: английские
Оригинальная аудиодорожка: французский
Режиссер: Энтони Марсиано / Anthony Marciano
В ролях: Ален Шаба, Макс Бублиль, Сандрин Киберлэн, Мелани Бернье, Ари Элмале, Элиза Сенауи, Элбан Ленуар, Франсуа Дюнойе, Николя Бриансон, Мелюсин Маянс
Описание: Жильберу уже пятьдесят лет, из которых тридцать он женат на Сюзанне, немного занудной дамочке, помешанной на здоровом питании. Они готовятся к встрече с Томасом, женихом своей дочери Лолы. Но Жильбера совершенно не радует предстоящая свадьба. Ему скучно, он разочарован в себе и в своей жизни. Жильбер уверен, что в его нынешнем унылом существовании виновата... Сюзанна! Ведь если бы он не женился, то жизнь его была бы совсем другой - яркой и насыщенной. Жильбер уговаривает Томаса отказаться от свадьбы с Лолой и не повторять его ошибок. И вот, два великовозрастных дитяти, забыв о своих любимых женщинах, пускаются во все тяжкие...
Сэмпл: http://multi-up.com/1001064
Качество видео: BDRip 720p
Формат видео: MKV
Видео: AVC, 1280x544, 24 fps, ~ 5400 kbps avg, 0.328 b/p
Аудио 1: AC3, 2.0 ch, 48 khz, 192 kbps, Бочаров
Аудио 2: AC3, 2.0 ch, 48 khz, 192 kbps, многоголосый
Аудио 3: AC3, 2.0 ch, 48 khz, 192 kbps, Original French
Формат субтитров: softsub (SRT)
MediaInfo
General
Unique ID : 172531243157651070571912138129150532542 (0x81CC4F0A80012D6280A3E71864E75BBE)
Complete name : Les gamins (Anthony Marciano) - 2013.mkv
Format : Matroska
Format version : Version 4 / Version 2
File size : 4.21 GiB
Duration : 1h 37mn
Overall bit rate : 6 177 Kbps
Encoded date : UTC 2014-09-23 15:18:38
Writing application : mkvmerge v6.5.0 ('Isn't she lovely') built on Oct 20 2013 12:50:05
Writing library : libebml v1.3.0 + libmatroska v1.4.1
Video
ID : 1
Format : AVC
Format/Info : Advanced Video Codec
Format profile : High@L4.1
Format settings, CABAC : Yes
Format settings, ReFrames : 11 frames
Codec ID : V_MPEG4/ISO/AVC
Duration : 1h 37mn
Bit rate : 5 478 Kbps
Width : 1 280 pixels
Height : 544 pixels
Display aspect ratio : 2.35:1
Frame rate : 24.000 fps
Color space : YUV
Chroma subsampling : 4:2:0
Bit depth : 8 bits
Scan type : Progressive
Bits/(Pixel*Frame) : 0.328
Stream size : 3.73 GiB (89%)
Audio #1
ID : 2
Format : AC-3
Format/Info : Audio Coding 3
Mode extension : CM (complete main)
Codec ID : A_AC3
Duration : 1h 37mn
Bit rate mode : Constant
Bit rate : 192 Kbps
Channel(s) : 2 channels
Channel positions : Front: L R
Sampling rate : 48.0 KHz
Bit depth : 16 bits
Compression mode : Lossy
Stream size : 134 MiB (3%)
Title : А. Бочаров
Language : Russian
Audio #2
ID : 3
Format : AC-3
Format/Info : Audio Coding 3
Mode extension : CM (complete main)
Codec ID : A_AC3
Duration : 1h 37mn
Bit rate mode : Constant
Bit rate : 192 Kbps
Channel(s) : 2 channels
Channel positions : Front: L R
Sampling rate : 48.0 KHz
Bit depth : 16 bits
Compression mode : Lossy
Stream size : 134 MiB (3%)
Title : Чистый Звук
Language : Russian
Audio #3
ID : 4
Format : AC-3
Format/Info : Audio Coding 3
Mode extension : CM (complete main)
Codec ID : A_AC3
Duration : 1h 37mn
Bit rate mode : Constant
Bit rate : 192 Kbps
Channel(s) : 2 channels
Channel positions : Front: L R
Sampling rate : 48.0 KHz
Bit depth : 16 bits
Compression mode : Lossy
Stream size : 134 MiB (3%)
Language : French
Text
ID : 5
Format : UTF-8
Codec ID : S_TEXT/UTF8
Codec ID/Info : UTF-8 Plain Text
Language : English
Menu
00:00:00.000 : en:00:00:00.000
00:07:17.792 : en:00:07:17.792
00:12:19.167 : en:00:12:19.167
00:22:53.083 : en:00:22:53.083
00:31:22.792 : en:00:31:22.792
00:41:30.750 : en:00:41:30.750
00:53:01.708 : en:00:53:01.708
01:01:23.167 : en:01:01:23.167
01:10:52.750 : en:01:10:52.750
01:19:57.792 : en:01:19:57.792
01:27:40.333 : en:01:27:40.333
01:33:27.958 : en:01:33:27.958
Скриншот c названием фильма Скриншоты
Скачать

Скачать торрент!

Как скачивать? · Что такое торрент? · Рейтинг и ограничения

Сайт не распространяет и не хранит электронные версии произведений, а лишь предоставляет доступ к создаваемому пользователями каталогу ссылок на торрент-файлы, которые содержат только списки хеш-сумм

[Профиль] [ЛС]
Показать сообщения:    
Ответить на тему

Текущее время: Сегодня 03:49

Часовой пояс: GMT + 4



Вы не можете начинать темы
Вы не можете отвечать на сообщения
Вы не можете редактировать свои сообщения
Вы не можете удалять свои сообщения
Вы не можете голосовать в опросах
Вы не можете прикреплять файлы к сообщениям
Вы не можете скачивать файлы