Тыквоголовый / Pumpkinhead (Стэн Уинстон / Stan Winston) [1988, США, ужасы, BDRemux 1080p] MVO + AVO (Живов) + AVO (Горчаков) + VO (Логинофф) + Sub Eng + Original Eng

Ответить на тему
 
Автор Сообщение

user ®

Стаж: 7 лет 7 месяцев

Сообщений: 20008

Пост Пост: #1 от 25-Сен-2014 01:45

[Цитировать]

-Тыквоголовый / Pumpkinhead-Страна: США
Жанр: ужасы
Год выпуска: 1988
Продолжительность: 01:26:32-Перевод: Профессиональный (многоголосый закадровый)
Перевод 2: Авторский (одноголосый закадровый) Юрий Живов
Перевод 3: Авторский (одноголосый закадровый) Василий Горчаков
Перевод 4: Одноголосый закадровый Максим Логинофф
Cубтитры: английские
Оригинальная аудиодорожка: английский-Режиссер: Стэн Уинстон / Stan Winston
В ролях: Лэнс Хенриксен, Джефф Ист, Джон Д’Акино, Кимберли Росс, Джоэль Хоффман, Синтия Бейн, Керри Ремсен, Флоренс Шауффлер, Брайан Бремер, Джордж «Бак» Флауэр-Описание: Группа городских подростков отправляется погонять на мотоциклах в горы. Один из разгорячившихся «лихачей» сбивает насмерть маленького мальчика. Безутешный отец погибшего ребенка, Эд Харли, жаждет мщения и обращается за помощью к местной ведьме. Старая колдунья рассказывает ему, как с помощью его собственной крови и крови убитого сына можно разбудить Демона мести. Так из потустороннего мира появляется ужасное чудовище – Тыквоголовый…-Сэмпл: https://yadi.sk/i/Tvbi0chXbdCQV
Тип релиза: BDRemux 1080p
Контейнер: MKV
Видео: MPEG-4 AVC Video / 34997 kbps / 1080p / 23.976 fps / 16:9 / High Profile 4.1
Аудио: Russian DD 2.0 48 kHz 192 kbps MVO
Аудио 2: Russian / DTS-HD Master Audio / 5.1 / 48 kHz / 3577 kbps / 24-bit (DTS Core: 5.1 / 48 kHz / 1509 kbps / 24-bit) | Юрий Живов
Аудио 3: Russian / DTS-HD Master Audio / 5.1 / 48 kHz / 3489 kbps / 24-bit (DTS Core: 5.1 / 48 kHz / 1509 kbps / 24-bit) | Василий Горчаков
Аудио 4: Russian DD 2.0 48 kHz 192 kbps
Аудио 5: English / DTS-HD Master Audio / 5.1 / 48 kHz / 3466 kbps / 24-bit (DTS Core: 5.1 / 48 kHz / 1509 kbps / 24-bit)
Аудио 6: English DD 2.0 48 kHz 192 kbps Commentary
Формат субтитров: softsub (SRT)
MI
General
Unique ID                                : 238396038969276478098316855762990204023 (0xB3596831A37592CF9AEA76B83D190477)
Complete name                            : Z:\+ Классика (70-80 xx)\Тыквоголовый (1988. Pumpkinhead).mkv
Format                                   : Matroska
Format version                           : Version 2
File size                                : 27.6 GiB
Duration                                 : 1h 26mn
Overall bit rate mode                    : Variable
Overall bit rate                         : 45.6 Mbps
Movie name                               : Pumpkinhead.1988.BDRemux.HDCLUB
Encoded date                             : UTC 2014-09-23 19:24:51
Writing application                      : mkvmerge v4.9.1 ('Ich will') сборка от Jul 11 2011 23:53:15
Writing library                          : libebml v1.2.1 + libmatroska v1.1.1
Video
ID                                       : 1
Format                                   : AVC
Format/Info                              : Advanced Video Codec
Format profile                           : High@L4.1
Format settings, CABAC                   : Yes
Format settings, ReFrames                : 4 frames
Codec ID                                 : V_MPEG4/ISO/AVC
Duration                                 : 1h 26mn
Bit rate mode                            : Variable
Maximum bit rate                         : 38.0 Mbps
Width                                    : 1 920 pixels
Height                                   : 1 080 pixels
Display aspect ratio                     : 16:9
Frame rate mode                          : Constant
Frame rate                               : 23.976 fps
Color space                              : YUV
Chroma subsampling                       : 4:2:0
Bit depth                                : 8 bits
Scan type                                : Progressive
Title                                    : Pumpkinhead 1988 Scream Factory Collectors Edition Blu-ray 1080p AVC DTS-HD MA 5.1
Language                                 : English
Default                                  : Yes
Forced                                   : No
Audio #1
ID                                       : 2
Format                                   : AC-3
Format/Info                              : Audio Coding 3
Mode extension                           : CM (complete main)
Format settings, Endianness              : Big
Codec ID                                 : A_AC3
Duration                                 : 1h 26mn
Bit rate mode                            : Constant
Bit rate                                 : 192 Kbps
Channel(s)                               : 2 channels
Channel positions                        : Front: L R
Sampling rate                            : 48.0 KHz
Bit depth                                : 16 bits
Compression mode                         : Lossy
Stream size                              : 119 MiB (0%)
Title                                    : MVO
Language                                 : Russian
Default                                  : Yes
Forced                                   : No
Audio #2
ID                                       : 3
Format                                   : DTS
Format/Info                              : Digital Theater Systems
Format profile                           : MA / Core
Mode                                     : 16
Format settings, Endianness              : Big
Codec ID                                 : A_DTS
Duration                                 : 1h 26mn
Bit rate mode                            : Variable
Bit rate                                 : Unknown / 1 509 Kbps
Channel(s)                               : 6 channels
Channel positions                        : Front: L C R, Side: L R, LFE
Sampling rate                            : 48.0 KHz
Bit depth                                : 24 bits
Compression mode                         : Lossless / Lossy
Title                                    : AVO [Юрий Живов]
Language                                 : Russian
Default                                  : No
Forced                                   : No
Audio #3
ID                                       : 4
Format                                   : DTS
Format/Info                              : Digital Theater Systems
Format profile                           : MA / Core
Mode                                     : 16
Format settings, Endianness              : Big
Codec ID                                 : A_DTS
Duration                                 : 1h 26mn
Bit rate mode                            : Variable
Bit rate                                 : Unknown / 1 509 Kbps
Channel(s)                               : 6 channels
Channel positions                        : Front: L C R, Side: L R, LFE
Sampling rate                            : 48.0 KHz
Bit depth                                : 24 bits
Compression mode                         : Lossless / Lossy
Title                                    : AVO [Василий Горчаков]
Language                                 : Russian
Default                                  : No
Forced                                   : No
Audio #4
ID                                       : 5
Format                                   : AC-3
Format/Info                              : Audio Coding 3
Mode extension                           : CM (complete main)
Format settings, Endianness              : Big
Codec ID                                 : A_AC3
Duration                                 : 1h 26mn
Bit rate mode                            : Constant
Bit rate                                 : 192 Kbps
Channel(s)                               : 2 channels
Channel positions                        : Front: L R
Sampling rate                            : 48.0 KHz
Bit depth                                : 16 bits
Compression mode                         : Lossy
Stream size                              : 119 MiB (0%)
Title                                    : AVO [Максим Логинофф
Language                                 : Russian
Default                                  : No
Forced                                   : No
Audio #5
ID                                       : 6
Format                                   : DTS
Format/Info                              : Digital Theater Systems
Format profile                           : MA / Core
Mode                                     : 16
Format settings, Endianness              : Big
Codec ID                                 : A_DTS
Duration                                 : 1h 26mn
Bit rate mode                            : Variable
Bit rate                                 : Unknown / 1 509 Kbps
Channel(s)                               : 6 channels
Channel positions                        : Front: L C R, Side: L R, LFE
Sampling rate                            : 48.0 KHz
Bit depth                                : 24 bits
Compression mode                         : Lossless / Lossy
Language                                 : English
Default                                  : No
Forced                                   : No
Audio #6
ID                                       : 7
Format                                   : AC-3
Format/Info                              : Audio Coding 3
Mode extension                           : CM (complete main)
Format settings, Endianness              : Big
Codec ID                                 : A_AC3
Duration                                 : 1h 26mn
Bit rate mode                            : Constant
Bit rate                                 : 192 Kbps
Channel(s)                               : 2 channels
Channel positions                        : Front: L R
Sampling rate                            : 48.0 KHz
Bit depth                                : 16 bits
Compression mode                         : Lossy
Stream size                              : 119 MiB (0%)
Title                                    : Commentary
Language                                 : English
Default                                  : No
Forced                                   : No
Text
ID                                       : 8
Format                                   : UTF-8
Codec ID                                 : S_TEXT/UTF8
Codec ID/Info                            : UTF-8 Plain Text
Language                                 : English
Default                                  : No
Forced                                   : No
Menu
00:00:00.000                             : en:Chapter 1
00:08:12.909                             : en:Chapter 2
00:15:05.905                             : en:Chapter 3
00:24:54.493                             : en:Chapter 4
00:29:25.221                             : en:Chapter 5
00:38:10.413                             : en:Chapter 6
00:47:17.835                             : en:Chapter 8
00:52:53.211                             : en:Chapter 9
00:58:25.251                             : en:Chapter 10
01:02:42.592                             : en:Chapter 11
01:10:39.235                             : en:Chapter 12
01:17:59.675                             : en:Chapter 13
Скриншоты


Зеркало Цитата:
  • Релиз . Спасибо Spiellberg!
  • Дорожки №2,3 получены путем наложения чистых голосов на центральный канал оригинального DTS-HD MA.
  • Сохранены оригинальные чаптеры как на Blu-ray.
Скачать

Скачать торрент!

Как скачивать? · Что такое торрент? · Рейтинг и ограничения

Сайт не распространяет и не хранит электронные версии произведений, а лишь предоставляет доступ к создаваемому пользователями каталогу ссылок на торрент-файлы, которые содержат только списки хеш-сумм

[Профиль] [ЛС]
Показать сообщения:    
Ответить на тему

Текущее время: Сегодня 22:30

Часовой пояс: GMT + 4



Вы не можете начинать темы
Вы не можете отвечать на сообщения
Вы не можете редактировать свои сообщения
Вы не можете удалять свои сообщения
Вы не можете голосовать в опросах
Вы не можете прикреплять файлы к сообщениям
Вы не можете скачивать файлы