Бродяга / Ragamuffin (Дэвид Шульц / David Schultz) [2014, США, драма, биография, HDRip] VO (ИндивИдуалист)

Ответить на тему
 
Автор Сообщение

user ®

Стаж: 7 лет 7 месяцев

Сообщений: 20008

Пост Пост: #1 от 24-Сен-2014 22:35

[Цитировать]

Бродяга / Ragamuffin Страна: США
Жанр: драма, биография
Год выпуска: 2014
Продолжительность: 02:20:37
Перевод: Одноголосый, закадровый - ИндивИдуалист
Режиссёр: Дэвид Шульц / David Schultz-В ролях: Дэвид Шульц (Сэм), Майкл Кох (Рич), Вольфганг Бодисон (Брайн), Джеймс Кайсон Ли (Мэтт), Митч Маквикер, Элизабет Робертс (Джессика), Карсон Он (Джастин), Эми Шульц (Эми Грант), Чарльз Лоулор (Бреннан Мэннинг).
Описание: Бродяга - фильм про Ричарда Маллинса, композитора, музыканта, исполнителя в жанре христианской музыки.
Рич старался найти себя, обрести веру в Бога и сказать людям нечто важное своим творчеством.
Ричард относился к социальным благам как к разрушающему человека явлению и хотя он заработал миллионы, бухгалтер по его просьбе выдавал ему ежемесячное пособие в размере среднего заработка - остальное он отдавал в церковь на пожертвования. Ричард Маллинс никогда не знал точную сумму, которую он заработал.
"Не важно, сколько у тебя шрамов, главное, как ты прожил свою жизнь".-Доп. информация: Переводчики фильма: Олеся Лисичникова, Динара Мамбетова и Егор Колодин.
Принимали участие в переводе: ONG, ayaleto, __Elizaveta__, morond.
Редактура, озвучивание, постер: ИндивИдуалист
Видеорип: Scarabey-Качество видео: HDRip
Формат видео: AVI
Видео: 688x384, 23.976fps, XviD 1.2.1 ~ 1766kbps, 0.27 bit/pixel
Аудио: 48 kHz, AC3 Dolby Digital, 3/2 (L,C,R,l,r) + LFE ch, ~448 kbps [Одноголосый закадровый: ИндивИдуалист]-| Отрывок | КиноПоиск
Приятного просмотра!

Скриншот c названием фильма Скриншоты МИ
General
Format : AVI
Format/Info : Audio Video Interleave
Format profile : OpenDML
File size : 2.18 GiB
Duration : 2h 20mn
Overall bit rate : 2 215 Kbps
Writing application : VirtualDubModRus 1.5.10.2 (build 2542/release)
Writing library : VirtualDubMod build 2542/release
Video
ID : 0
Format : MPEG-4 Visual
Format profile : Advanced Simple@L5
Format settings, BVOP : Yes
Format settings, QPel : No
Format settings, GMC : No warppoints
Format settings, Matrix : Custom
Codec ID : XVID
Codec ID/Hint : XviD
Duration : 2h 20mn
Bit rate : 1 766 Kbps
Width : 688 pixels
Height : 384 pixels
Display aspect ratio : 16:9
Frame rate : 23.976 fps
Color space : YUV
Chroma subsampling : 4:2:0
Bit depth : 8 bits
Scan type : Progressive
Compression mode : Lossy
Bits/(Pixel*Frame) : 0.279
Stream size : 1.73 GiB (80%)
Writing library : XviD 1.2.1 (UTC 2008-12-04)
Audio
ID : 1
Format : AC-3
Format/Info : Audio Coding 3
Mode extension : CM (complete main)
Format settings, Endianness : Big
Codec ID : 2000
Duration : 2h 17mn
Bit rate mode : Constant
Bit rate : 448 Kbps
Channel(s) : 6 channels
Channel positions : Front: L C R, Side: L R, LFE
Sampling rate : 48.0 KHz
Bit depth : 16 bits
Compression mode : Lossy
Stream size : 440 MiB (20%)
Alignment : Split accross interleaves
Interleave, duration : 43 ms (1.02 video frame)
Interleave, preload duration : 500 ms
Скачать

Скачать торрент!

Как скачивать? · Что такое торрент? · Рейтинг и ограничения

Сайт не распространяет и не хранит электронные версии произведений, а лишь предоставляет доступ к создаваемому пользователями каталогу ссылок на торрент-файлы, которые содержат только списки хеш-сумм

[Профиль] [ЛС]
Показать сообщения:    
Ответить на тему

Текущее время: Сегодня 13:53

Часовой пояс: GMT + 4



Вы не можете начинать темы
Вы не можете отвечать на сообщения
Вы не можете редактировать свои сообщения
Вы не можете удалять свои сообщения
Вы не можете голосовать в опросах
Вы не можете прикреплять файлы к сообщениям
Вы не можете скачивать файлы