Скрибблер / Писака / The Scribbler (Джон Суитц / John Suits) [2014, США, триллер, WEB-DLRip-AVC] VO (Алексей Толмачев) + Sub Eng

Ответить на тему
 
Автор Сообщение

user ®

Стаж: 7 лет 7 месяцев

Сообщений: 20008

Пост Пост: #1 от 24-Сен-2014 19:25

[Цитировать]

Скрибблер / Писака / The Scribbler
Страна: США
Жанр: триллер
Год выпуска: 2014
Продолжительность: 01:29:27
Перевод: Одноголосый закадровый Алексей Толмачев
Cубтитры: английские
Оригинальная аудиодорожка: нет
Режиссер: Джон Суитц / John Suits
В ролях: Кэти Кэссиди, Гаррет Дилахант, Мишель Трахтенберг, Майкл Империоли, Джина Гершон, Элайза Душку, Саша Грей, Билли Кэмпбелл
Описание: События фильма разворачиваются вокруг молодой женщины, только что выписавшейся из психбольницы. Ее направляют в специальный медицинский корпус, который должен завершить лечение и подготовить девушку к нормальной жизни в социуме. Там она должна избавиться от своих побочных личностей, из-за которых загремела в психушку. После ее прибытия персонал отдела начинает вымирать с огромной скоростью, при достаточно необычных обстоятельствах…


Качество видео: WEB-DLRip-AVC / The.Scribbler.2014.720p.HDRip.x264.AC3.5.1-RARBG
Формат видео: MKV
Видео: MPEG-4 AVC Video / 2 149 Кбит/сек / 960x408 / 23.976 / 2.35:1 / High Profile 3.2
Аудио: AC3 / Dolby Digital Audio / 2.0 / 48 kHz / 192 kbps |Алексей Толмачев|
Формат субтитров: softsub (SRT)
FAQ по просмотру MKV/h.264/AAC
[url=http://***/forum/viewtopic.php?p=9255801#1]•Смогу ли я запустить AVC фильм на своём компьютере?[/url]
[url=http://***/forum/viewtopic.php?p=9255801#2]•Сампл из раздачи не воспроизводится/тормозит или отсутствует звук/изображение. Что делать?[/url]
[url=http://***/forum/viewtopic.php?p=9255801#3]•Что такое H.264/AVC и зачем он нужен?[/url]
[url=http://***/forum/viewtopic.php?p=9255801#4]•Что за дурацкий формат .MKV?[/url]
[url=http://***/forum/viewtopic.php?p=9255801#5]•Почему MKV? Чем AVI хуже?[/url]
[url=http://***/forum/viewtopic.php?p=9255801#6]•Не могу переключить/включить/выключить аудио/видео дорожки и/или субтитры. Что делать?[/url]
[url=http://***/forum/viewtopic.php?p=9255801#14]•Как сделать так, чтобы по умолчанию при просмотре MKV файлов нужные/ненужные субтитры были включены/выключены, и/или сразу проигрывалась дорожка на нужном мне языке?[/url]
[url=http://***/forum/viewtopic.php?p=9255801#7]•Будут ли фильмы в таком формате проигрываться на бытовых плеерах без компьютера?[/url]
[url=http://***/forum/viewtopic.php?p=9255801#8]•Проигрываю фильм, а картинка очень сильно отличается от скринов/бледная/перенасыщенная. Что не так?[/url]
[url=http://***/forum/viewtopic.php?p=9255801#9]•Можно ли сконвертировать AVC в DVD?[/url]
[url=http://***/forum/viewtopic.php?p=9255801#10]•Почему сплюснута картинка / в характеристиках видео указано два разрешения / что такое анаморфное разрешение?[/url]
[url=http://***/forum/viewtopic.php?p=9255801#169]•Зачем релизёры обманывают качающих и пишут в заголовке 720p/1080p, а на самом деле раздают видеоматериалы в непонятных разрешениях?[/url]
[url=http://***/forum/viewtopic.php?p=9255801#11]•Можно ли вывести многоканальный FLAC/AAC-звук на внешний ресивер?[/url]
[url=http://***/forum/viewtopic.php?p=9255801#12]•У меня 2-канальная акустика/стереонаушники. При просмотре видео почти не слышно/совсем не слышно речь/разговоры, играют только фоновые звуки. Что делать?[/url]
[url=http://***/forum/viewtopic.php?p=9255801#coreweightp]•У меня стоит CoreAVC версии 1.9.5 или младше. При воспроизведении картинка рассыпается на квадраты и разноцветные пятна. Кривой рип?[/url]
[url=http://***/forum/viewtopic.php?p=9255801#13]•Всё прочитал(-а), решения своей проблемы не нашёл(-шла)/не смог(-ла) разобраться. Что делать?[/url]
MediaInfo
General
Unique ID                                : 235324509302436735034400379568827594222 (0xB109DA16DD3A471DB13C31B843F2F5EE)
Complete name                            : The Scribbler.2014.WEB-DLRip-AVC_[***].mkv
Format                                   : Matroska
Format version                           : Version 4 / Version 2
File size                                : 1.46 GiB
Duration                                 : 1h 29mn
Overall bit rate                         : 2 342 Kbps
Movie name                               : The Scribbler.2014
Encoded date                             : UTC 2014-09-23 18:03:41
Writing application                      : mkvmerge v7.1.0 ('Good Love') 64bit built on Jul 27 2014 13:06:55
Writing library                          : libebml v1.3.0 + libmatroska v1.4.1
DURATION                                 : 01:28:26.634000000
NUMBER_OF_FRAMES                         : 1040
NUMBER_OF_BYTES                          : 37425
_STATISTICS_WRITING_APP                  : mkvmerge v7.1.0 ('Good Love') 64bit built on Jul 27 2014 13:06:55
_STATISTICS_WRITING_DATE_UTC             : 2014-09-23 18:03:41
_STATISTICS_TAGS                         : BPS DURATION NUMBER_OF_FRAMES NUMBER_OF_BYTES
Video
ID                                       : 1
Format                                   : AVC
Format/Info                              : Advanced Video Codec
Format profile                           : High@L3.2
Format settings, CABAC                   : Yes
Format settings, ReFrames                : 9 frames
Codec ID                                 : V_MPEG4/ISO/AVC
Duration                                 : 1h 29mn
Bit rate                                 : 2 149 Kbps
Width                                    : 960 pixels
Height                                   : 408 pixels
Display aspect ratio                     : 2.35:1
Frame rate mode                          : Constant
Frame rate                               : 23.976 fps
Color space                              : YUV
Chroma subsampling                       : 4:2:0
Bit depth                                : 8 bits
Scan type                                : Progressive
Bits/(Pixel*Frame)                       : 0.229
Stream size                              : 1.31 GiB (90%)
Title                                    : The Scribbler.2014.WEB-DLRip-AVC_[***]
Writing library                          : x264 core 142 r2431 ac76440
Encoding settings                        : cabac=1 / ref=9 / deblock=1:-2:-1 / analyse=0x3:0x133 / me=umh / subme=11 / psy=1 / psy_rd=0.95:0.05 / mixed_ref=1 / me_range=48 / chroma_me=1 / trellis=2 / 8x8dct=1 / cqm=0 / deadzone=21,11 / fast_pskip=0 / chroma_qp_offset=-3 / threads=6 / lookahead_threads=1 / sliced_threads=0 / nr=0 / decimate=1 / interlaced=0 / bluray_compat=0 / constrained_intra=0 / bframes=11 / b_pyramid=2 / b_adapt=2 / b_bias=0 / direct=3 / weightb=1 / open_gop=0 / weightp=2 / keyint=240 / keyint_min=23 / scenecut=40 / intra_refresh=0 / rc_lookahead=80 / rc=2pass / mbtree=1 / bitrate=2149 / ratetol=1.0 / qcomp=0.60 / qpmin=0 / qpmax=69 / qpstep=4 / cplxblur=20.0 / qblur=0.5 / vbv_maxrate=25000 / vbv_bufsize=25000 / nal_hrd=none / filler=0 / ip_ratio=1.40 / aq=2:1.00
Language                                 : English
Default                                  : Yes
Forced                                   : No
Matrix coefficients                      : BT.709
Audio
ID                                       : 2
Format                                   : AC-3
Format/Info                              : Audio Coding 3
Mode extension                           : CM (complete main)
Format settings, Endianness              : Big
Codec ID                                 : A_AC3
Duration                                 : 1h 29mn
Bit rate mode                            : Constant
Bit rate                                 : 192 Kbps
Channel(s)                               : 2 channels
Channel positions                        : Front: L R
Sampling rate                            : 48.0 KHz
Bit depth                                : 16 bits
Compression mode                         : Lossy
Stream size                              : 123 MiB (8%)
Title                                    : Одноголосый закадровый Алексей Толмачев
Language                                 : Russian
Default                                  : Yes
Forced                                   : No
Text
ID                                       : 3
Format                                   : UTF-8
Codec ID                                 : S_TEXT/UTF8
Codec ID/Info                            : UTF-8 Plain Text
Language                                 : English
Default                                  : No
Forced                                   : No
Menu
00:00:00.000                             : en:Chapter 1
00:05:20.070                             : en:Chapter 2
00:10:18.034                             : en:Chapter 3
00:17:35.055                             : en:Chapter 4
00:23:10.015                             : en:Chapter 5
00:26:52.070                             : en:Chapter 6
00:30:03.053                             : en:Chapter 7
00:37:14.025                             : en:Chapter 8
00:40:06.072                             : en:Chapter 9
00:43:36.074                             : en:Chapter 10
00:50:40.040                             : en:Chapter 11
00:56:43.069                             : en:Chapter 12
01:05:03.028                             : en:Chapter 13
01:13:33.079                             : en:Chapter 14
01:19:23.013                             : en:Chapter 15
01:25:29.045                             : en:Chapter 16
Скриншоты
Скачать

Скачать торрент!

Как скачивать? · Что такое торрент? · Рейтинг и ограничения

Сайт не распространяет и не хранит электронные версии произведений, а лишь предоставляет доступ к создаваемому пользователями каталогу ссылок на торрент-файлы, которые содержат только списки хеш-сумм

[Профиль] [ЛС]
Показать сообщения:    
Ответить на тему

Текущее время: Сегодня 01:15

Часовой пояс: GMT + 4



Вы не можете начинать темы
Вы не можете отвечать на сообщения
Вы не можете редактировать свои сообщения
Вы не можете удалять свои сообщения
Вы не можете голосовать в опросах
Вы не можете прикреплять файлы к сообщениям
Вы не можете скачивать файлы