Пассажир 57 / Passenger 57 (Кевин Хукс / Kevin Hooks) [1992, США, боевик, BDRip 1080p] Dub (Мост-Видео) + Dub (Варус-Видео) + MVO (ТВ-3) + DVO (НТВ / ТНТ) + AVO (Гаврилов) + AVO (Горчаков) + Sub Rus, Eng + Original Eng

Ответить на тему
 
Автор Сообщение

user ®

Стаж: 7 лет 7 месяцев

Сообщений: 20008

Пост Пост: #1 от 22-Сен-2014 23:20

[Цитировать]

Пассажир 57 / Passenger 57
Страна: США
Жанр: боевик
Год выпуска: 1992
Продолжительность: 01:23:44
-
Перевод 1: Профессиональный (дублированный) Мост-Видео
Перевод 2: Профессиональный (дублированный) Варус-Видео
Перевод 3: Профессиональный (многоголосый закадровый) ТВ-3
Перевод 4: Профессиональный (двухголосый закадровый) НТВ / ТНТ
Перевод 5: Авторский (одноголосый закадровый) Андрей Гаврилов
Перевод 6: Авторский (одноголосый закадровый) Василий Горчаков
Cубтитры: русские (полные) и английские (полные и SDH)
Оригинальная аудиодорожка: английский
-
Режиссер: Кевин Хукс / Kevin Hooks
В ролях: Уэсли Снайпс, Брюс Пэйн, Том Сайзмор, Алекс Дэтчер, Брюс Гринвуд, Роберт Хукс, Элизабет Хёрли, Майкл Хорс, Марк Маколей, Эрни Лайвли
-
Описание: Считается, что путешествовать по воздуху — безопаснее всего. Но те, кто проводил подобные расчёты, не учли присутствие на борту Чарльза Рейна. «Рейн-Террорист» разработал четыре теракта. Скоро произойдёт пятый и это — плохая новость для пассажира рейса 163. Но есть и хорошая новость: пассажир в кресле номер 57! Он расправляет крылья в этом захватывающем воздушном приключении. Он играет Джона Каттера, тайного оперативника, который зашёл в туалет и исчез с самолёта, чтобы найти Рейна и расправиться с его бандой. Следующий шаг Каттера понятен. Действовать. Пока тебя самого не «сделали».
-

-
Сэмпл: https://www.sendspace.com/file/uytgtf
-
Тип релиза: BDRip 1080p
Контейнер: MKV
Видео: 1920x800p (2.40:1), 23.976 fps, 11933 kbps
Аудио 1: русский / AC3 / 5.1 / 48 kHz / 384 kbps / 16 bit || DUB
Аудио 2: русский / AC3 / 2.0 / 48 kHz / 192 kbps / 16 bit || DUB
Аудио 3: русский / AC3 / 2.0 / 48 kHz / 192 kbps / 16 bit || MVO
Аудио 4: русский / AC3 / 2.0 / 48 kHz / 192 kbps / 16 bit || DVO
Аудио 5: русский / DTS / 5.1 / 48 kHz / 1510 kbps / 24 bit || AVO
Аудио 6: русский / AC3 / 2.0 / 48 kHz / 192 kbps / 16 bit || AVO
Аудио 7: английский / DTS / 5.1 / 48 kHz / 1509 kbps / 24 bit || Original
Формат субтитров: softsub (SRT)
Главы: есть
Доп. информация
На замену этому рипу [url=http://***/forum/viewtopic.php?t=4514996]http://***/forum/viewtopic.php?t=4514996[/url]. Рип от MediaClub, дорожки с дубляжом от Варус-Видео и двухголоску от НТВ, а также субтитры взяты с раздачи от HQClub (с другого трекера) Гаврилов взят отсюда [url=http://***/forum/viewtopic.php?t=4510902]http://***/forum/viewtopic.php?t=4510902[/url] английские (полные) субтитры и оригинальная дорожка взяты из сети. Авторам спасибо.
MediaInfo
General
Unique ID : 205871821100377449301165999649863573632 (0x9AE1787271A18BE6ADA659E693292080)
Complete name : C:\Users\ALEX\Downloads\Фильмы\HD\Passenger 57.1992.BDRip.1080p.6xRus.Eng.Subs.Chpt.mkv
Format : Matroska
Format version : Version 4 / Version 2
File size : 9.42 GiB
Duration : 1h 23mn
Overall bit rate : 16.1 Mbps
Encoded date : UTC 2014-09-21 06:24:24
Writing application : mkvmerge v6.6.0 ('The Edge Of The In Between') built on Dec 1 2013 17:55:00
Writing library : libebml v1.3.0 + libmatroska v1.4.1
Video
ID : 1
Format : AVC
Format/Info : Advanced Video Codec
Format profile : High@L4.1
Format settings, CABAC : Yes
Format settings, ReFrames : 4 frames
Codec ID : V_MPEG4/ISO/AVC
Duration : 1h 23mn
Bit rate : 11.9 Mbps
Width : 1 920 pixels
Height : 800 pixels
Display aspect ratio : 2.40:1
Frame rate mode : Constant
Frame rate : 23.976 fps
Color space : YUV
Chroma subsampling : 4:2:0
Bit depth : 8 bits
Scan type : Progressive
Bits/(Pixel*Frame) : 0.324
Stream size : 6.79 GiB (72%)
Title : MediaClub
Writing library : x264 core 130 r2273 b3065e6
Encoding settings : cabac=1 / ref=4 / deblock=1:-3:-3 / analyse=0x3:0x133 / me=umh / subme=11 / psy=1 / psy_rd=1.00:0.20 / mixed_ref=1 / me_range=48 / chroma_me=1 / trellis=2 / 8x8dct=1 / cqm=0 / deadzone=21,11 / fast_pskip=0 / chroma_qp_offset=-3 / threads=12 / lookahead_threads=2 / sliced_threads=0 / nr=0 / decimate=0 / interlaced=0 / bluray_compat=0 / constrained_intra=0 / bframes=8 / b_pyramid=2 / b_adapt=2 / b_bias=0 / direct=3 / weightb=1 / open_gop=0 / weightp=2 / keyint=240 / keyint_min=23 / scenecut=40 / intra_refresh=0 / rc=2pass / mbtree=0 / bitrate=11933 / ratetol=1.0 / qcomp=0.60 / qpmin=0 / qpmax=69 / qpstep=4 / cplxblur=20.0 / qblur=0.5 / ip_ratio=1.40 / pb_ratio=1.30 / aq=1:1.00
Language : English
Default : Yes
Forced : No
Audio #1
ID : 2
Format : AC-3
Format/Info : Audio Coding 3
Mode extension : CM (complete main)
Format settings, Endianness : Big
Codec ID : A_AC3
Duration : 1h 23mn
Bit rate mode : Constant
Bit rate : 384 Kbps
Channel(s) : 6 channels
Channel positions : Front: L C R, Side: L R, LFE
Sampling rate : 48.0 KHz
Bit depth : 16 bits
Compression mode : Lossy
Stream size : 230 MiB (2%)
Title : DUB - Мост-Видео
Language : Russian
Default : Yes
Forced : No
Audio #2
ID : 3
Format : AC-3
Format/Info : Audio Coding 3
Mode extension : CM (complete main)
Format settings, Endianness : Big
Codec ID : A_AC3
Duration : 1h 23mn
Bit rate mode : Constant
Bit rate : 192 Kbps
Channel(s) : 2 channels
Channel positions : Front: L R
Sampling rate : 48.0 KHz
Bit depth : 16 bits
Compression mode : Lossy
Stream size : 115 MiB (1%)
Title : DUB - Варус-Видео
Language : Russian
Default : No
Forced : No
Audio #3
ID : 4
Format : AC-3
Format/Info : Audio Coding 3
Mode extension : CM (complete main)
Format settings, Endianness : Big
Codec ID : A_AC3
Duration : 1h 23mn
Bit rate mode : Constant
Bit rate : 192 Kbps
Channel(s) : 2 channels
Channel positions : Front: L R
Sampling rate : 48.0 KHz
Bit depth : 16 bits
Compression mode : Lossy
Stream size : 115 MiB (1%)
Title : MVO - ТВ-3
Language : Russian
Default : No
Forced : No
Audio #4
ID : 5
Format : AC-3
Format/Info : Audio Coding 3
Mode extension : CM (complete main)
Format settings, Endianness : Big
Codec ID : A_AC3
Duration : 1h 23mn
Bit rate mode : Constant
Bit rate : 192 Kbps
Channel(s) : 2 channels
Channel positions : Front: L R
Sampling rate : 48.0 KHz
Bit depth : 16 bits
Compression mode : Lossy
Stream size : 115 MiB (1%)
Title : DVO - НТВ / ТНТ
Language : Russian
Default : No
Forced : No
Audio #5
ID : 6
Format : DTS
Format/Info : Digital Theater Systems
Mode : 16
Format settings, Endianness : Big
Codec ID : A_DTS
Duration : 1h 23mn
Bit rate mode : Constant
Bit rate : 1 510 Kbps
Channel(s) : 6 channels
Channel positions : Front: L C R, Side: L R, LFE
Sampling rate : 48.0 KHz
Bit depth : 24 bits
Compression mode : Lossy
Stream size : 904 MiB (9%)
Title : AVO - Андрей Гаврилов
Language : Russian
Default : No
Forced : No
Audio #6
ID : 7
Format : AC-3
Format/Info : Audio Coding 3
Mode extension : CM (complete main)
Format settings, Endianness : Big
Codec ID : A_AC3
Duration : 1h 23mn
Bit rate mode : Constant
Bit rate : 192 Kbps
Channel(s) : 2 channels
Channel positions : Front: L R
Sampling rate : 48.0 KHz
Bit depth : 16 bits
Compression mode : Lossy
Stream size : 115 MiB (1%)
Title : AVO - Василий Горчаков
Language : Russian
Default : No
Forced : No
Audio #7
ID : 8
Format : DTS
Format/Info : Digital Theater Systems
Mode : 16
Format settings, Endianness : Big
Codec ID : A_DTS
Duration : 1h 23mn
Bit rate mode : Constant
Bit rate : 1 509 Kbps
Channel(s) : 6 channels
Channel positions : Front: L C R, Side: L R, LFE
Sampling rate : 48.0 KHz
Bit depth : 24 bits
Compression mode : Lossy
Stream size : 904 MiB (9%)
Title : Original
Language : English
Default : No
Forced : No
Text #1
ID : 9
Format : UTF-8
Codec ID : S_TEXT/UTF8
Codec ID/Info : UTF-8 Plain Text
Title : Full
Language : Russian
Default : No
Forced : No
Text #2
ID : 10
Format : UTF-8
Codec ID : S_TEXT/UTF8
Codec ID/Info : UTF-8 Plain Text
Title : Full
Language : English
Default : No
Forced : No
Text #3
ID : 11
Format : UTF-8
Codec ID : S_TEXT/UTF8
Codec ID/Info : UTF-8 Plain Text
Title : SDH
Language : English
Default : No
Forced : No
Menu
00:00:00.000 : en:Chapter 1
00:09:55.469 : en:Chapter 2
00:19:39.720 : en:Chapter 3
00:29:12.584 : en:Chapter 4
00:39:04.800 : en:Chapter 5
00:49:26.088 : en:Chapter 6
00:59:28.022 : en:Chapter 7
01:10:21.050 : en:Chapter 8
01:20:38.667 : en:Chapter 9
Скриншоты
Скачать

Скачать торрент!

Как скачивать? · Что такое торрент? · Рейтинг и ограничения

Сайт не распространяет и не хранит электронные версии произведений, а лишь предоставляет доступ к создаваемому пользователями каталогу ссылок на торрент-файлы, которые содержат только списки хеш-сумм

[Профиль] [ЛС]
Показать сообщения:    
Ответить на тему

Текущее время: Сегодня 16:15

Часовой пояс: GMT + 4



Вы не можете начинать темы
Вы не можете отвечать на сообщения
Вы не можете редактировать свои сообщения
Вы не можете удалять свои сообщения
Вы не можете голосовать в опросах
Вы не можете прикреплять файлы к сообщениям
Вы не можете скачивать файлы