Последний кадр / The Last Shot (Джефф Натансон / Jeff Nathanson) [2004, США, комедия, HDTV 1080i] MVO

Ответить на тему
 
Автор Сообщение

user ®

Стаж: 7 лет 7 месяцев

Сообщений: 20008

Пост Пост: #1 от 22-Сен-2014 23:20

[Цитировать]

Последний кадр / The Last Shot«The true story of the greatest movie never made» Страна: США
Жанр: комедия
Год выпуска: 2004
Продолжительность: 01:26:53
Перевод: Профессиональный (многоголосый закадровый)
Cубтитры: нет
Режиссер: Джефф Натансон / Jeff Nathanson
В ролях: Мэттью Бродерик, Алек Болдуин, Тони Коллетт, Тони Шэлуб, Калиста Флокхарт, Тим Блейк Нельсон, Бак Генри, Рэй Лиотта, Иэн Гомес, Трой Уинбуш
Описание: Агенту Джо Дивайну поручено разработать план по поимке известного главаря мафии Джона Готти. Для выполнения столь важного задания он с удовольствием перевоплощается в голливудского продюсера и даже нанимает режиссера Стивена Шаца, ничего не подозревающего о том, что этому фильму не суждено быть снятым. Что же получается, когда орудием для выполнения сверхсекретного задания становится шоу-бизнес?

Сэмпл: http://rusfolder.com/41785684
Тип релиза: HDTV 1080i
Контейнер: TS
Видео: AVC/H.264, PAL, 1920x1080 (16:9), 8605 Кбит/сек, 25.000 fps
Аудио: русский, MP-2, 48000 Hz, 192 Кбит/сек, 2 ch
MediaInfo
Общее
Идентификатор : 1 (0x1)
Полное имя : D:\Последний кадр.ts
Формат : MPEG-TS
Размер файла : 5,62 Гбайт
Продолжительность : 1 ч. 26 м.
Режим общего битрейта : Переменный
Общий поток : 9256 Кбит/сек
Максимальный общий битрейт : 35,5 Мбит/сек
Видео
Идентификатор : 4113 (0x1011)
Идентификатор меню : 1 (0x1)
Формат : AVC
Формат/Информация : Advanced Video Codec
Профиль формата : Main@L4.0
Параметр CABAC формата : Да
Параметр ReFrames формата : 3 кадра
Идентификатор кодека : 27
Продолжительность : 1 ч. 26 м.
Вид битрейта : Переменный
Битрейт : 8605 Кбит/сек
Максимальный битрейт : 40,0 Мбит/сек
Ширина : 1920 пикселей
Высота : 1080 пикселей
Соотношение сторон : 16:9
Частота кадров : 25,000 кадров/сек
Стандарт вещания : Component
Цветовое пространство : YUV
Субдискретизация насыщенности : 4:2:0
Битовая глубина : 8 бит
Тип развёртки : Чересстрочная
Порядок развёртки : Верхнее поле первое
Бит/(Пиксели*Кадры) : 0.166
Размер потока : 5,22 Гбайт (93%)
Основные цвета : BT.709
Характеристики трансфера : BT.709
Коэффициенты матрицы : BT.709
Аудио
Идентификатор : 4352 (0x1100)
Идентификатор меню : 1 (0x1)
Формат : MPEG Audio
Версия формата : Version 1
Профиль формата : Layer 2
Идентификатор кодека : 4
Продолжительность : 1 ч. 26 м.
Вид битрейта : Постоянный
Битрейт : 192 Кбит/сек
Каналы : 2 канала
Частота : 48,0 КГц
Метод сжатия : С потерями
Размер потока : 119 Мбайт (2%)
Язык : Russian
Скриншот с названием фильма Скриншоты [url=http://***/forum/tracker.php?nm=The%20Last%20Shot]Все раздачи "Последний кадр"[/url]
Скачать

Скачать торрент!

Как скачивать? · Что такое торрент? · Рейтинг и ограничения

Сайт не распространяет и не хранит электронные версии произведений, а лишь предоставляет доступ к создаваемому пользователями каталогу ссылок на торрент-файлы, которые содержат только списки хеш-сумм

[Профиль] [ЛС]
Показать сообщения:    
Ответить на тему

Текущее время: Сегодня 22:40

Часовой пояс: GMT + 4



Вы не можете начинать темы
Вы не можете отвечать на сообщения
Вы не можете редактировать свои сообщения
Вы не можете удалять свои сообщения
Вы не можете голосовать в опросах
Вы не можете прикреплять файлы к сообщениям
Вы не можете скачивать файлы