Мой белый и пушистый / Мой милый, белый, пушистый (Максим Демченко) [2013, Мелодрама, HDTVRip]

Ответить на тему
 
Автор Сообщение

user ®

Стаж: 7 лет 7 месяцев

Сообщений: 20008

Пост Пост: #1 от 22-Сен-2014 23:20

[Цитировать]

--Мой белый и пушистый / Мой милый, белый, пушистый-- Жанр: Мелодрама
Год выпуска: 2013
Продолжительность: 01:34:15--Режиссёр: Максим Демченко--В ролях: Светлана Антонова, Андрей Биланов, Руслан Чернецкий, Юлия Кудояр, Анастасия Сорокина, Ольга Клебанович, Владимир Мищанчук, Анна Хитрик, Андрей Кривецкий, Антон Старовойтов, Анастасия Клименко, Оксана Лесная, Елена Дубровская, Евгений Хамелянский--Описание: Лена всегда была хорошей женой. Ради мужа Виталия она оставила успешную карьеру и занялась домашним хозяйством. Только все напрасно. Муж потихоньку крутит романы, а свекровь пилит Лену за то, что у нее нет детей. По мнению свекрови семья без детей – не семья. А если Лена родить в не состоянии, Виталию нужно найти другую жену. Поэтому когда Виталий заводит очередной роман, свекровь едва ли не аплодирует. А для Лены это, естественно, сильный удар. И, к сожалению, не единственный. В автомобильной катастрофе погибает близкая подруга Лены, оставив сиротой маленького сына Дениску. Лене предстоит «сразиться» за ребёнка с пьющим братом подруги и в непростых условиях добиться опеки над малышом. Не сломаться под грузом проблем женщине поможет новый знакомый – сосед подруги – Николай…--Качество видео: HDTVRip / Сэмпл--Формат видео: AVI
Видео: 720x400 (1.80:1), 25 fps, XviD build 73 ~2022 kbps avg, 0.28 bit/pixel
Аудио: 48 kHz, AC3 Dolby Digital, 2/0 (L,R) ch, ~192 kbps--Автор рипа: SANNYa
-
-
MediaInfo
Общее
Полное имя : C:\Users\Александр\Desktop\Мой белый и пушистый (Мой милый, белый, пушистый)_2014_HDTVRip_by_SANNYa.avi
Формат : AVI
Формат/Информация : Audio Video Interleave
Размер файла : 1,46 Гбайт
Продолжительность : 1 ч. 34 м.
Общий поток : 2224 Кбит/сек
Программа кодирования : VirtualDubMod 1.5.10.3 | www.virtualdub-fr.org || (build 2550/release)
Библиотека кодирования : VirtualDubMod build 2550/release
Видео
Идентификатор : 0
Формат : MPEG-4 Visual
Профиль формата : Advanced Simple@L5
Параметр BVOP формата : 1
Параметр QPel формата : Нет
Параметр GMC формата : Без точки перехода
Параметр матрицы формата : Выборочная
Идентификатор кодека : XVID
Идентификатор кодека/Подсказка : XviD
Продолжительность : 1 ч. 34 м.
Битрейт : 2022 Кбит/сек
Ширина : 720 пикселей
Высота : 400 пикселей
Соотношение сторон : 16:9
Частота кадров : 25,000 кадров/сек
Цветовое пространство : YUV
Субдискретизация насыщенности : 4:2:0
Битовая глубина : 8 бит
Тип развёртки : Прогрессивная
Метод сжатия : С потерями
Бит/(Пиксели*Кадры) : 0.281
Размер потока : 1,33 Гбайт (91%)
Библиотека кодирования : XviD 73
Аудио
Идентификатор : 1
Формат : AC-3
Формат/Информация : Audio Coding 3
Расширение режима : CM (complete main)
Параметр Endianness формата : Big
Идентификатор кодека : 2000
Продолжительность : 1 ч. 34 м.
Вид битрейта : Постоянный
Битрейт : 192 Кбит/сек
Каналы : 2 канала
Расположение каналов : Front: L R
Частота : 48,0 КГц
Битовая глубина : 16 бит
Метод сжатия : С потерями
Размер потока : 129 Мбайт (9%)
Выравнивание : Разделение по промежуткам
Продолжительность промежутка : 40 мс. (1,00 видеокадр)
Время предзагрузки промежутка : 500 мс.
Сравнение
[url=http://***/forum/viewtopic.php?t=4622272]http://***/forum/viewtopic.php?t=4622272[/url]
http://screenshotcomparison.com/comparison/92606

-
-Скриншоты
-
-
Скачать

Скачать торрент!

Как скачивать? · Что такое торрент? · Рейтинг и ограничения

Сайт не распространяет и не хранит электронные версии произведений, а лишь предоставляет доступ к создаваемому пользователями каталогу ссылок на торрент-файлы, которые содержат только списки хеш-сумм

[Профиль] [ЛС]
Показать сообщения:    
Ответить на тему

Текущее время: Сегодня 08:11

Часовой пояс: GMT + 4



Вы не можете начинать темы
Вы не можете отвечать на сообщения
Вы не можете редактировать свои сообщения
Вы не можете удалять свои сообщения
Вы не можете голосовать в опросах
Вы не можете прикреплять файлы к сообщениям
Вы не можете скачивать файлы