Лепрекон: Начало / Leprechaun: Origins (Зэк Липовски / Zach Lipovsky) [2014, США, ужасы, фэнтези, HDRip-AVC] VO + Original (Eng) + Sub (Eng)

Ответить на тему
 
Автор Сообщение

user ®

Стаж: 7 лет 7 месяцев

Сообщений: 20008

Пост Пост: #1 от 22-Сен-2014 23:20

[Цитировать]

Лепрекон: Начало / Leprechaun: Origins
Страна: США
Жанр: ужасы, фэнтези
Год выпуска: 2014
Продолжительность: 01:30:12
Перевод: Одноголосый закадровый - datynet, перевод - Janetta
Оригинальная аудиодорожка: английский
Cубтитры: английские (Full, SDH)-Режиссер: Зэк Липовски / Zach Lipovsky
В ролях: Стефани Беннетт (Sophie), Эндрю Данбар (Ben), Мелисса Роксбур (Jeni), Брендан Флетчер (David), Гари Чок (Hamish), Тич Грант (Sean), Брюс Блэйн (Ian), Мэри Блэк (Mary), Адам Бойс (Francois), Эмили Уллерап (Catherine), Гари Питерман (Irish Farmer), Дилан Постл (Leprechaun)-Описание: Путешествуя по живописным историческим местам Ирландии, четверо молодых ребят поддаются на уговоры местного жителя посетить местную достопримечательность - древние каменные статуи. Однако им предстоит узнать ужасную тайну, что хранит маленькая ирландская деревушка, и радушное гостеприимство жителей обернется коварнымии кровожадными планами.-СЭМПЛ
Тип релиза: HDRip-AVC
Исходник: Leprechaun.2014.1080p.BluRay.x264-ROVERS
Контейнер: MKV
Видео: 1152x648p / 23.976 fps / 16:9 / High Profile 4.1 / AVC / ~ 2820 Kbps
Аудио 1: AC3 / 192 Kbps / 2.0 / 48 kHz / Russian / VO - datynet
Аудио 2: AC3 / 448 Kbps / 5.1 / 48 kHz / English / original
Формат субтитров: softsub (SRT)-IMDB * КиноПоиск
Интересно
Роль Лепрекона в картине исполняет Дилан Постл - американский профессиональный рестлер, чемпион WWE в первом тяжёлом весе.
Первоначально "Лепрекон: Начало" должен был быть выпущен в прокат в феврале 2013 года, о чём Дилан Постл сделал официальное видео-заявление, но премьера картины была перенесена на год позже.
MediaInfo / x264 log
General
Complete name : Leprechaun.Origins.2014.HDRip-AVC.VO.mkv
Format : Matroska
Format version : Version 2
File size : 2.18 GiB
Duration : 1h 30mn
Overall bit rate : 3 462 Kbps
Encoded date : UTC 2014-09-22 08:06:36
Writing application : mkvmerge v5.8.0 ('No Sleep / Pillow') built on Sep 2 2012 15:37:04
Writing library : libebml v1.2.3 + libmatroska v1.3.0
Video
ID : 1
Format : AVC
Format/Info : Advanced Video Codec
Format profile : High@L4.1
Format settings, CABAC : Yes
Format settings, ReFrames : 11 frames
Codec ID : V_MPEG4/ISO/AVC
Duration : 1h 30mn
Bit rate : 2 820 Kbps
Width : 1 152 pixels
Height : 648 pixels
Display aspect ratio : 16:9
Frame rate mode : Constant
Frame rate : 23.976 fps
Color space : YUV
Chroma subsampling : 4:2:0
Bit depth : 8 bits
Scan type : Progressive
Bits/(Pixel*Frame) : 0.158
Stream size : 1.73 GiB (80%)
Title : Leprechaun Origins 2014
Writing library : x264 core 142 r2479 dd79a61
Encoding settings : cabac=1 / ref=11 / deblock=1:-3:-3 / analyse=0x3:0x113 / me=umh / subme=11 / psy=1 / psy_rd=1.10:0.00 / mixed_ref=1 / me_range=32 / chroma_me=1 / trellis=2 / 8x8dct=1 / cqm=0 / deadzone=21,11 / fast_pskip=1 / chroma_qp_offset=-2 / threads=6 / lookahead_threads=1 / sliced_threads=0 / nr=0 / decimate=1 / interlaced=0 / bluray_compat=0 / constrained_intra=0 / bframes=8 / b_pyramid=2 / b_adapt=2 / b_bias=0 / direct=3 / weightb=1 / open_gop=0 / weightp=2 / keyint=240 / keyint_min=23 / scenecut=40 / intra_refresh=0 / rc=2pass / mbtree=0 / bitrate=2820 / ratetol=1.0 / qcomp=0.60 / qpmin=0 / qpmax=69 / qpstep=4 / cplxblur=20.0 / qblur=0.5 / ip_ratio=1.40 / pb_ratio=1.30 / aq=2:0.90
Default : Yes
Forced : No
Audio #1
ID : 2
Format : AC-3
Format/Info : Audio Coding 3
Mode extension : CM (complete main)
Format settings, Endianness : Big
Codec ID : A_AC3
Duration : 1h 30mn
Bit rate mode : Constant
Bit rate : 192 Kbps
Channel(s) : 2 channels
Channel positions : Front: L R
Sampling rate : 48.0 KHz
Bit depth : 16 bits
Compression mode : Lossy
Stream size : 124 MiB (6%)
Title : RUS AC3 192 2ch VO datynet
Language : Russian
Default : Yes
Forced : No
Audio #2
ID : 3
Format : AC-3
Format/Info : Audio Coding 3
Mode extension : CM (complete main)
Format settings, Endianness : Big
Codec ID : A_AC3
Duration : 1h 30mn
Bit rate mode : Constant
Bit rate : 448 Kbps
Channel(s) : 6 channels
Channel positions : Front: L C R, Side: L R, LFE
Sampling rate : 48.0 KHz
Bit depth : 16 bits
Compression mode : Lossy
Stream size : 289 MiB (13%)
Title : ENG AC3 448 6ch
Language : English
Default : No
Forced : No
Text #1
ID : 4
Format : UTF-8
Codec ID : S_TEXT/UTF8
Codec ID/Info : UTF-8 Plain Text
Title : ENG SUB
Language : English
Default : No
Forced : No
Text #2
ID : 5
Format : UTF-8
Codec ID : S_TEXT/UTF8
Codec ID/Info : UTF-8 Plain Text
Title : ENG SUB SDH
Language : English
Default : No
Forced : No
Menu
00:00:00.000 : :Chapter 01
00:05:29.621 : :Chapter 02
00:14:36.542 : :Chapter 03
00:21:02.011 : :Chapter 04
00:24:51.824 : :Chapter 05
00:31:12.579 : :Chapter 06
00:35:45.518 : :Chapter 07
00:40:36.100 : :Chapter 08
00:53:00.260 : :Chapter 09
01:00:05.602 : :Chapter 10
01:11:55.603 : :Chapter 11
01:18:13.105 : :Chapter 12-x264 [info]: frame I:850 Avg QP:13.75 size: 72139
x264 [info]: frame P:34879 Avg QP:16.33 size: 26503
x264 [info]: frame B:94039 Avg QP:17.72 size: 9809
x264 [info]: consecutive B-frames: 5.0% 5.9% 13.3% 30.4% 13.4% 22.5% 1.8% 2.3% 5.5%
Скриншот с названием Скриншоты
Скачать

Скачать торрент!

Как скачивать? · Что такое торрент? · Рейтинг и ограничения

Сайт не распространяет и не хранит электронные версии произведений, а лишь предоставляет доступ к создаваемому пользователями каталогу ссылок на торрент-файлы, которые содержат только списки хеш-сумм

[Профиль] [ЛС]
Показать сообщения:    
Ответить на тему

Текущее время: Сегодня 00:07

Часовой пояс: GMT + 4



Вы не можете начинать темы
Вы не можете отвечать на сообщения
Вы не можете редактировать свои сообщения
Вы не можете удалять свои сообщения
Вы не можете голосовать в опросах
Вы не можете прикреплять файлы к сообщениям
Вы не можете скачивать файлы