Трансформеры: Эпоха истребления / Transformers: Age of Extinction (Майкл Бэй / Michael Bay) [2014, США, Китай, Фантастика, боевик, приключения, BDRip-AVC] Dub (line) + Sub Eng

Ответить на тему
 
Автор Сообщение

user ®

Стаж: 7 лет 11 месяцев

Сообщений: 20008

Пост Пост: #1 от 22-Сен-2014 20:10

[Цитировать]

Трансформеры: Эпоха истребления / Transformers: Age of Extinction
Страна: США, Китай
Жанр: Фантастика, боевик, приключения
Год выпуска: 2014
Продолжительность: 02:45:18
Перевод: Профессиональный (дублированный) [line]
Cубтитры: английские
Оригинальная аудиодорожка: нет
Режиссер: Майкл Бэй / Michael Bay
В ролях: Марк Уолберг, Никола Пельтц, Джек Рейнор, Стэнли Туччи, Келси Грэммер, Титус Уэлливер, ТиДжей Миллер, Ли Бинбин, София Майлс, Питер Каллен
Описание: Автоботы и десептиконы покинули планету, оставив человечество собирать ее по кусочкам. Между тем группа могущественных бизнесменов и гениальных ученых пытается извлечь уроки из ошибок прошлого и улучшить технологии до такой степени, чтобы выйти за пределы контролируемого ранее. В это время другая группа — древних мощных трансформеров — берет Землю под прицел.

Автор рипа: Vovan1979
Сэмпл: http://multi-up.com/1000690
Качество видео: BDRip-AVC исх. (Transformers.Age.Of.Extinction.2014.BDRemux.(1080p).ExKinoRay)
Формат видео: MKV
Видео: 720x300 (2,40:1), 23,976 fps, x264 ~ 1100 kbps avg, 0.212 bit/pixel
Аудио: 48 kHz, Audio Coding 3, 2 ch, ~192 kbps avg
MediaInfo
Общее
Уникальный идентификатор : 217368266474240596508227618939548034655 (0xA3879AF750A815FA87153F45AAD9665F)
Полное имя : D:ВидеоTransformers.Age.Of.Extinction.2014.. BDRip-AVC 1.50 by Vovan1979 WazZzuP & ExKinoRay.mkv
Формат : Matroska
Версия формата : Version 4 / Version 2
Размер файла : 1,49 Гбайт
Продолжительность : 2 ч. 45 м.
Общий поток : 1291 Кбит/сек
Название фильма : Transformers.Age.Of.Extinction.2014.. BDRip-AVC by Vovan1979 WazZzuP & ExKinoRay
Дата кодирования : UTC 2014-09-20 14:35:46
Программа кодирования : mkvmerge v7.1.0 ('Good Love') 64bit built on Jul 27 2014 13:06:55
Библиотека кодирования : libebml v1.3.0 + libmatroska v1.4.1
DURATION : 02:45:20.448000000
NUMBER_OF_FRAMES : 310014
NUMBER_OF_BYTES : 238090752
_STATISTICS_WRITING_APP : mkvmerge v7.1.0 ('Good Love') 64bit built on Jul 27 2014 13:06:55
_STATISTICS_WRITING_DATE_UTC : 2014-09-20 14:35:46
_STATISTICS_TAGS : BPS DURATION NUMBER_OF_FRAMES NUMBER_OF_BYTES
Видео
Идентификатор : 1
Формат : AVC
Формат/Информация : Advanced Video Codec
Профиль формата : High@L4.1
Параметр CABAC формата : Да
Параметр ReFrames формата : 11 кадров
Идентификатор кодека : V_MPEG4/ISO/AVC
Продолжительность : 2 ч. 45 м.
Битрейт : 1100 Кбит/сек
Ширина : 720 пикселей
Высота : 300 пикселей
Соотношение сторон : 2,40:1
Режим частоты кадров : Постоянный
Частота кадров : 23,976 кадра/сек
Цветовое пространство : YUV
Субдискретизация насыщенности : 4:2:0
Битовая глубина : 8 бит
Тип развёртки : Прогрессивная
Бит/(Пиксели*Кадры) : 0.212
Размер потока : 1,24 Гбайт (83%)
Заголовок : by Vovan1979 WazZzuP & ExKinoRay
Библиотека кодирования : x264 core 130 r2273 b3065e6
Настройки программы : cabac=1 / ref=11 / deblock=1:-1:-1 / analyse=0x3:0x113 / me=umh / subme=11 / psy=1 / psy_rd=1.00:0.15 / mixed_ref=1 / me_range=32 / chroma_me=1 / trellis=2 / 8x8dct=1 / cqm=0 / deadzone=21,11 / fast_pskip=1 / chroma_qp_offset=-3 / threads=6 / lookahead_threads=1 / sliced_threads=0 / nr=0 / decimate=0 / interlaced=0 / bluray_compat=0 / constrained_intra=0 / bframes=8 / b_pyramid=2 / b_adapt=2 / b_bias=0 / direct=3 / weightb=1 / open_gop=0 / weightp=2 / keyint=240 / keyint_min=23 / scenecut=40 / intra_refresh=0 / rc_lookahead=40 / rc=2pass / mbtree=1 / bitrate=1100 / ratetol=1.0 / qcomp=0.60 / qpmin=0 / qpmax=69 / qpstep=4 / cplxblur=20.0 / qblur=0.5 / ip_ratio=1.40 / aq=1:1.00
Default : Да
Forced : Нет
Аудио
Идентификатор : 2
Формат : AC-3
Формат/Информация : Audio Coding 3
Расширение режима : CM (complete main)
Параметр Endianness формата : Big
Идентификатор кодека : A_AC3
Продолжительность : 2 ч. 45 м.
Вид битрейта : Постоянный
Битрейт : 192 Кбит/сек
Каналы : 2 канала
Расположение каналов : Front: L R
Частота : 48,0 КГц
Битовая глубина : 16 бит
Метод сжатия : С потерями
Размер потока : 227 Мбайт (15%)
Default : Да
Forced : Нет
Текст
Идентификатор : 3
Формат : UTF-8
Идентификатор кодека : S_TEXT/UTF8
Идентификатор кодека/Информация : UTF-8 Plain Text
Язык : English
Default : Да
Forced : Нет
Скриншот c названием фильма Скриншоты
Скачать

Скачать торрент!

Как скачивать? · Что такое торрент? · Рейтинг и ограничения

Сайт не распространяет и не хранит электронные версии произведений, а лишь предоставляет доступ к создаваемому пользователями каталогу ссылок на торрент-файлы, которые содержат только списки хеш-сумм

[Профиль] [ЛС]
Показать сообщения:    
Ответить на тему

Текущее время: Сегодня 10:41

Часовой пояс: GMT + 4



Вы не можете начинать темы
Вы не можете отвечать на сообщения
Вы не можете редактировать свои сообщения
Вы не можете удалять свои сообщения
Вы не можете голосовать в опросах
Вы не можете прикреплять файлы к сообщениям
Вы не можете скачивать файлы