Злая кровь / Wicked Blood (Марк Янг / Mark Young) [2014, США, боевик, триллер, драма, HDRip-AVC] VO (datynet) + Sub (Rus, Eng) + Original Eng

Ответить на тему
 
Автор Сообщение

user ®

Стаж: 7 лет 7 месяцев

Сообщений: 20008

Пост Пост: #1 от 22-Сен-2014 20:10

[Цитировать]

Злая кровь / Wicked Blood
Страна: США
Жанр: боевик, триллер, драма
Год выпуска: 2014
Продолжительность: 01:31:48
Перевод: Одноголосый закадровый datynet
Cубтитры: Русские (Михаил Васильев), Английские
Оригинальная аудиодорожка: английский
Режиссер: Марк Янг / Mark Young
В ролях: Эбигейл Бреслин, Алекса ПенаВега, Шон Бин, Джеймс Пьюрфой, Джейк Бьюзи
Описание: Ханна Ли Бейкер — девочка-подросток, попавшая в ловушку насилия и оружия, мет-лабораторий и банд байкеров. Она живет со своей старшей сестрой, Амбер, и ее дядей-наркоманом. Все они боятся дядю Фрэнка Стинсона, который руководит незаконным семейным бизнесом…


Качество видео: HDRip-AVC / Wicked.Blood.2014.1080p.BluRay.x264-ROVERS
Формат видео: MKV
Видео: MPEG-4 AVC Video / 2 497 Кбит/сек / 1056x572 / 23.976 / 1.85:1 / High Profile 4.1
Аудио 1: AC3 / Dolby Digital Audio / 5.1 / 48 kHz / 448 kbps |datynet|
Аудио 2: AC3 / Dolby Digital Audio / 5.1 / 48 kHz / 448 kbps |Original|
Формат субтитров: softsub (SRT)
FAQ по просмотру MKV/h.264/AAC
[url=http://***/forum/viewtopic.php?p=9255801#1]•Смогу ли я запустить AVC фильм на своём компьютере?[/url]
[url=http://***/forum/viewtopic.php?p=9255801#2]•Сампл из раздачи не воспроизводится/тормозит или отсутствует звук/изображение. Что делать?[/url]
[url=http://***/forum/viewtopic.php?p=9255801#3]•Что такое H.264/AVC и зачем он нужен?[/url]
[url=http://***/forum/viewtopic.php?p=9255801#4]•Что за дурацкий формат .MKV?[/url]
[url=http://***/forum/viewtopic.php?p=9255801#5]•Почему MKV? Чем AVI хуже?[/url]
[url=http://***/forum/viewtopic.php?p=9255801#6]•Не могу переключить/включить/выключить аудио/видео дорожки и/или субтитры. Что делать?[/url]
[url=http://***/forum/viewtopic.php?p=9255801#14]•Как сделать так, чтобы по умолчанию при просмотре MKV файлов нужные/ненужные субтитры были включены/выключены, и/или сразу проигрывалась дорожка на нужном мне языке?[/url]
[url=http://***/forum/viewtopic.php?p=9255801#7]•Будут ли фильмы в таком формате проигрываться на бытовых плеерах без компьютера?[/url]
[url=http://***/forum/viewtopic.php?p=9255801#8]•Проигрываю фильм, а картинка очень сильно отличается от скринов/бледная/перенасыщенная. Что не так?[/url]
[url=http://***/forum/viewtopic.php?p=9255801#9]•Можно ли сконвертировать AVC в DVD?[/url]
[url=http://***/forum/viewtopic.php?p=9255801#10]•Почему сплюснута картинка / в характеристиках видео указано два разрешения / что такое анаморфное разрешение?[/url]
[url=http://***/forum/viewtopic.php?p=9255801#169]•Зачем релизёры обманывают качающих и пишут в заголовке 720p/1080p, а на самом деле раздают видеоматериалы в непонятных разрешениях?[/url]
[url=http://***/forum/viewtopic.php?p=9255801#11]•Можно ли вывести многоканальный FLAC/AAC-звук на внешний ресивер?[/url]
[url=http://***/forum/viewtopic.php?p=9255801#12]•У меня 2-канальная акустика/стереонаушники. При просмотре видео почти не слышно/совсем не слышно речь/разговоры, играют только фоновые звуки. Что делать?[/url]
[url=http://***/forum/viewtopic.php?p=9255801#coreweightp]•У меня стоит CoreAVC версии 1.9.5 или младше. При воспроизведении картинка рассыпается на квадраты и разноцветные пятна. Кривой рип?[/url]
[url=http://***/forum/viewtopic.php?p=9255801#13]•Всё прочитал(-а), решения своей проблемы не нашёл(-шла)/не смог(-ла) разобраться. Что делать?[/url]
MediaInfo
General
Unique ID                                : 202447181616676141639071668897427689218 (0x984DE8AF317436E1A4BAC4A6995B0F02)
Complete name                            :Wicked Blood.2014.HDRip-AVC_[***].mkv
Format                                   : Matroska
Format version                           : Version 4 / Version 2
File size                                : 2.18 GiB
Duration                                 : 1h 31mn
Overall bit rate                         : 3 392 Kbps
Movie name                               : Wicked.Blood.2014
Encoded date                             : UTC 2014-09-22 10:40:18
Writing application                      : mkvmerge v7.1.0 ('Good Love') 64bit built on Jul 27 2014 13:06:55
Writing library                          : libebml v1.3.0 + libmatroska v1.4.1
DURATION                                 : 01:28:22.902000000
NUMBER_OF_FRAMES                         : 1223
NUMBER_OF_BYTES                          : 27298
_STATISTICS_WRITING_APP                  : mkvmerge v7.1.0 ('Good Love') 64bit built on Jul 27 2014 13:06:55
_STATISTICS_WRITING_DATE_UTC             : 2014-09-22 10:40:18
_STATISTICS_TAGS                         : BPS DURATION NUMBER_OF_FRAMES NUMBER_OF_BYTES
Video
ID                                       : 1
Format                                   : AVC
Format/Info                              : Advanced Video Codec
Format profile                           : High@L4.1
Format settings, CABAC                   : Yes
Format settings, ReFrames                : 10 frames
Codec ID                                 : V_MPEG4/ISO/AVC
Duration                                 : 1h 31mn
Bit rate                                 : 2 497 Kbps
Width                                    : 1 056 pixels
Height                                   : 572 pixels
Display aspect ratio                     : 1.85:1
Frame rate mode                          : Constant
Frame rate                               : 23.976 fps
Color space                              : YUV
Chroma subsampling                       : 4:2:0
Bit depth                                : 8 bits
Scan type                                : Progressive
Bits/(Pixel*Frame)                       : 0.172
Stream size                              : 1.56 GiB (72%)
Title                                    : Wicked.Blood.2014.HDRip-AVC_[***]
Writing library                          : x264 core 142 r2431 ac76440
Encoding settings                        : cabac=1 / ref=10 / deblock=1:-2:-1 / analyse=0x3:0x133 / me=umh / subme=11 / psy=1 / psy_rd=1.00:0.10 / mixed_ref=1 / me_range=48 / chroma_me=1 / trellis=2 / 8x8dct=1 / cqm=0 / deadzone=21,11 / fast_pskip=0 / chroma_qp_offset=-3 / threads=6 / lookahead_threads=1 / sliced_threads=0 / nr=0 / decimate=1 / interlaced=0 / bluray_compat=0 / constrained_intra=0 / bframes=12 / b_pyramid=2 / b_adapt=2 / b_bias=0 / direct=3 / weightb=1 / open_gop=0 / weightp=2 / keyint=240 / keyint_min=23 / scenecut=40 / intra_refresh=0 / rc_lookahead=80 / rc=2pass / mbtree=1 / bitrate=2497 / ratetol=1.0 / qcomp=0.60 / qpmin=0 / qpmax=69 / qpstep=4 / cplxblur=20.0 / qblur=0.5 / vbv_maxrate=25000 / vbv_bufsize=20000 / nal_hrd=none / filler=0 / ip_ratio=1.40 / aq=2:1.00
Language                                 : English
Default                                  : Yes
Forced                                   : No
Matrix coefficients                      : BT.709
Audio #1
ID                                       : 2
Format                                   : AC-3
Format/Info                              : Audio Coding 3
Mode extension                           : CM (complete main)
Format settings, Endianness              : Big
Codec ID                                 : A_AC3
Duration                                 : 1h 31mn
Bit rate mode                            : Constant
Bit rate                                 : 448 Kbps
Channel(s)                               : 6 channels
Channel positions                        : Front: L C R, Side: L R, LFE
Sampling rate                            : 48.0 KHz
Bit depth                                : 16 bits
Compression mode                         : Lossy
Stream size                              : 294 MiB (13%)
Title                                    : Одноголосый закадровый |datynet|
Language                                 : Russian
Default                                  : Yes
Forced                                   : No
Audio #2
ID                                       : 3
Format                                   : AC-3
Format/Info                              : Audio Coding 3
Mode extension                           : CM (complete main)
Format settings, Endianness              : Big
Codec ID                                 : A_AC3
Duration                                 : 1h 31mn
Bit rate mode                            : Constant
Bit rate                                 : 448 Kbps
Channel(s)                               : 6 channels
Channel positions                        : Front: L C R, Side: L R, LFE
Sampling rate                            : 48.0 KHz
Bit depth                                : 16 bits
Compression mode                         : Lossy
Stream size                              : 294 MiB (13%)
Language                                 : English
Default                                  : No
Forced                                   : No
Text #1
ID                                       : 4
Format                                   : UTF-8
Codec ID                                 : S_TEXT/UTF8
Codec ID/Info                            : UTF-8 Plain Text
Title                                    : Михаил Васильев
Language                                 : Russian
Default                                  : No
Forced                                   : No
Text #2
ID                                       : 5
Format                                   : UTF-8
Codec ID                                 : S_TEXT/UTF8
Codec ID/Info                            : UTF-8 Plain Text
Language                                 : English
Default                                  : No
Forced                                   : No
Menu
00:00:00.000                             : en:00:00:00.000
00:05:39.130                             : en:00:05:39.130
00:11:25.768                             : en:00:11:25.768
00:17:42.853                             : en:00:17:42.853
00:23:19.189                             : en:00:23:19.189
00:29:05.869                             : en:00:29:05.869
00:34:58.847                             : en:00:34:58.847
00:42:22.331                             : en:00:42:22.331
00:47:17.460                             : en:00:47:17.460
00:52:13.547                             : en:00:52:13.547
00:57:47.089                             : en:00:57:47.089
01:05:24.170                             : en:01:05:24.170
01:10:47.034                             : en:01:10:47.034
01:15:41.662                             : en:01:15:41.662
01:20:30.576                             : en:01:20:30.576
01:28:19.085                             : en:01:28:19.085
Скриншоты
Скачать

Скачать торрент!

Как скачивать? · Что такое торрент? · Рейтинг и ограничения

Сайт не распространяет и не хранит электронные версии произведений, а лишь предоставляет доступ к создаваемому пользователями каталогу ссылок на торрент-файлы, которые содержат только списки хеш-сумм

[Профиль] [ЛС]
Показать сообщения:    
Ответить на тему

Текущее время: Сегодня 09:01

Часовой пояс: GMT + 4



Вы не можете начинать темы
Вы не можете отвечать на сообщения
Вы не можете редактировать свои сообщения
Вы не можете удалять свои сообщения
Вы не можете голосовать в опросах
Вы не можете прикреплять файлы к сообщениям
Вы не можете скачивать файлы