Скрибблер / Писака / The Scribbler (Джон Суитц / John Suits) [2014, США, Триллер, HDRip] VO (Алексей Толмачев)

Ответить на тему
 
Автор Сообщение

user ®

Стаж: 7 лет 7 месяцев

Сообщений: 20008

Пост Пост: #1 от 22-Сен-2014 17:00

[Цитировать]

Скрибблер / Писака / The Scribbler
Страна: США
Жанр: Триллер
Год выпуска: 2014
Продолжительность: 01:29:27
Перевод: Одноголосый закадровый Алексей Толмачев
Cубтитры: нет
Оригинальная аудиодорожка: нет
Режиссер: Джон Суитц / John Suits
В ролях: Кэти Кэссиди (Суки), Гаррет Дилахант (Хоган), Мишель Трахтенберг (Элис), Майкл Империоли (Мосс), Джина Гершон (Клео), Элайза Душку (Силк), Саша Грей (Кролик), Билли Кэмпбелл (Синклер)
Описание: События фильма разворачиваются вокруг девушки по имени Суки, только что выписавшейся из психиатрической клиники. Ее направляют в специальный медицинский корпус, который должен завершить лечение и подготовить девушку к нормальной жизни в социуме. Там она с помощью экспериментальной "машины" должна избавиться от своих побочных личностей, из-за которых загремела в психушку. После ее прибытия в здании начинается "эпидемия" подозрительных самоубийств.
Сэмпл: http://multi-up.com/1000712

Качество видео: HDRip
Формат видео: AVI
Видео: 720x304 (2.35:1), 1 394 Kbps, 23.976 fps, 0.266 bit/pixel
Аудио: 48.0 kHz, MP3, 2 ch, 192 kbps
MediaInfo
Общее
Полное имя : The.Scribbler.2014.HDRip.XviD.rus.avi
Формат : AVI
Формат/Информация : Audio Video Interleave
Размер файла : 1021 Мбайт
Продолжительность : 1 ч. 29 м.
Общий поток : 1596 Кбит/сек
Название фильма : RARBG.COM - The.Scribbler.2014.HDRip.XviD.MP3-RARBG
Программа кодирования : VirtualDubMod 1.5.10.2 (build 2540/release)
Библиотека кодирования : VirtualDubMod build 2540/release
Примечание : RARBG.COM - The.Scribbler.2014.HDRip.XviD.MP3-RARBG
Видео
Идентификатор : 0
Формат : MPEG-4 Visual
Профиль формата : Simple@L5
Параметр BVOP формата : Нет
Параметр QPel формата : Нет
Параметр GMC формата : Без точки перехода
Параметр матрицы формата : Default (H.263)
Идентификатор кодека : XVID
Идентификатор кодека/Подсказка : XviD
Продолжительность : 1 ч. 29 м.
Битрейт : 1394 Кбит/сек
Ширина : 720 пикселей
Высота : 304 пикселя
Соотношение сторон : 2,35:1
Частота кадров : 23,976 кадра/сек
Цветовое пространство : YUV
Субдискретизация насыщенности : 4:2:0
Битовая глубина : 8 бит
Тип развёртки : Прогрессивная
Метод сжатия : С потерями
Бит/(Пиксели*Кадры) : 0.266
Размер потока : 892 Мбайт (87%)
Библиотека кодирования : Lavc56.1.100
Аудио
Идентификатор : 1
Формат : MPEG Audio
Версия формата : Version 1
Профиль формата : Layer 3
Режим : Joint stereo
Расширение режима : MS Stereo
Идентификатор кодека : 55
Идентификатор кодека/Подсказка : MP3
Продолжительность : 1 ч. 29 м.
Вид битрейта : Постоянный
Битрейт : 192 Кбит/сек
Каналы : 2 канала
Частота : 48,0 КГц
Метод сжатия : С потерями
Размер потока : 123 Мбайт (12%)
Выравнивание : Разделение по промежуткам
Продолжительность промежутка : 42 мс. (1,00 видеокадр)
Время предзагрузки промежутка : 500 мс.
Библиотека кодирования : LAME
Скриншот c названием фильма Скриншоты
Скачать

Скачать торрент!

Как скачивать? · Что такое торрент? · Рейтинг и ограничения

Сайт не распространяет и не хранит электронные версии произведений, а лишь предоставляет доступ к создаваемому пользователями каталогу ссылок на торрент-файлы, которые содержат только списки хеш-сумм

[Профиль] [ЛС]
Показать сообщения:    
Ответить на тему

Текущее время: Сегодня 21:54

Часовой пояс: GMT + 4



Вы не можете начинать темы
Вы не можете отвечать на сообщения
Вы не можете редактировать свои сообщения
Вы не можете удалять свои сообщения
Вы не можете голосовать в опросах
Вы не можете прикреплять файлы к сообщениям
Вы не можете скачивать файлы