Снег (Иван Твердовский) [2011, документальная драма, студенческая работа, короткий метр, IPTVRip, AVC]

Ответить на тему
 
Автор Сообщение

user ®

Стаж: 7 лет 7 месяцев

Сообщений: 20008

Пост Пост: #1 от 21-Сен-2014 23:00

[Цитировать]

Снег- Жанр: документальная драма, студенческая работа, короткий метр
Год выпуска: 2011
Продолжительность: 00:15:55
Режиссёр: Иван ТвердовскийВ ролях: Наталья Павленкова (учительница), Егор Столяров (внук), Елена Лотова (дочь), Филипп Савинков (барыга), Евгения Шевченко (девушка)
Описание: Работа студента экспериментальной мастерской режиссуры А.Е. Учителя во ВГИКе.
Снег - форма атмосферных осадков кристаллической формы, относящихся к обложным осадкам. Для героини фильма слово "снег" несет совсем другой смысл.
Доп. информация: Эгоист ТВ IPTV
Участник Фестиваля кино стран СНГ и Балтии "Киношок", Анапа (Россия) 2011; Международного Фестиваля короткометражного кино и анимации OPEN CINEMA, Санкт Петербург (Россия) 2011; международного кинофестиваля "Послание к человеку", Санкт Петербург (Россия) 2011; Открытого Фестиваля студенческих и дебютных фильмов "Святая Анна", Москва (Россия), 2012.

Качество видео: IPTVRip
Формат видео: MKV
Видео: AVC (H.264), 720x352, 25 fps, ~1500 kbps avg, 0.237 bit/pixel
Аудио: AC3, 2 ch, 44,1 kHz, ~128.00 kbps avg
MediaInfo
Общее
Уникальный идентификатор : 188920001039327008982749818296288429422 (0x8E20AB308C3D23E8BB7A5D81D9F4456E)
Полное имя : E:\My Torrents 2\[apreder]MINI_MOVIES_09\[apreder]MM_Sneg(2011)DVB.mkv
Формат : Matroska
Версия формата : Version 2
Размер файла : 186 Мбайт
Продолжительность : 15 м.
Общий поток : 1630 Кбит/сек
Дата кодирования : UTC 2014-09-21 16:35:13
Программа кодирования : mkvmerge v7.2.0 ('On Every Street') 64bit built on Sep 13 2014 15:52:10
Библиотека кодирования : libebml v1.3.0 + libmatroska v1.4.1
Видео
Идентификатор : 1
Формат : AVC
Формат/Информация : Advanced Video Codec
Профиль формата : High@L4.1
Параметр CABAC формата : Да
Параметр ReFrames формата : 16 кадров
Идентификатор кодека : V_MPEG4/ISO/AVC
Продолжительность : 15 м.
Битрейт : 1500 Кбит/сек
Ширина : 720 пикселей
Высота : 352 пикселя
Соотношение сторон : 2,045
Режим частоты кадров : Постоянный
Частота кадров : 25,000 кадров/сек
Цветовое пространство : YUV
Субдискретизация насыщенности : 4:2:0
Битовая глубина : 8 бит
Тип развёртки : Прогрессивная
Бит/(Пиксели*Кадры) : 0.237
Размер потока : 167 Мбайт (90%)
Библиотека кодирования : x264 core 142 r2431 ac76440
Настройки программы : cabac=1 / ref=16 / deblock=1:-1:-1 / analyse=0x3:0x133 / me=umh / subme=10 / psy=1 / psy_rd=1.00:0.15 / mixed_ref=1 / me_range=24 / chroma_me=1 / trellis=2 / 8x8dct=1 / cqm=0 / deadzone=21,11 / fast_pskip=1 / chroma_qp_offset=-3 / threads=6 / lookahead_threads=1 / sliced_threads=0 / nr=0 / decimate=1 / interlaced=0 / bluray_compat=0 / constrained_intra=0 / bframes=8 / b_pyramid=2 / b_adapt=2 / b_bias=0 / direct=3 / weightb=0 / open_gop=0 / weightp=2 / keyint=250 / keyint_min=25 / scenecut=40 / intra_refresh=0 / rc_lookahead=60 / rc=2pass / mbtree=1 / bitrate=1500 / ratetol=1.0 / qcomp=0.60 / qpmin=0 / qpmax=69 / qpstep=4 / cplxblur=20.0 / qblur=0.5 / vbv_maxrate=62500 / vbv_bufsize=78125 / nal_hrd=none / filler=0 / ip_ratio=1.40 / aq=1:1.00
Default : Да
Forced : Нет
Аудио
Идентификатор : 2
Формат : AC-3
Формат/Информация : Audio Coding 3
Расширение режима : CM (complete main)
Параметр Endianness формата : Big
Идентификатор кодека : A_AC3
Продолжительность : 15 м.
Вид битрейта : Постоянный
Битрейт : 128 Кбит/сек
Каналы : 2 канала
Расположение каналов : Front: L R
Частота : 44,1 КГц
Битовая глубина : 16 бит
Метод сжатия : С потерями
Размер потока : 14,6 Мбайт (8%)
Язык : Russian
Default : Да
Forced : Нет
Скриншот c названием фильма Скриншоты

Резервные скриншоты -[1'745]
Скачать

Скачать торрент!

Как скачивать? · Что такое торрент? · Рейтинг и ограничения

Сайт не распространяет и не хранит электронные версии произведений, а лишь предоставляет доступ к создаваемому пользователями каталогу ссылок на торрент-файлы, которые содержат только списки хеш-сумм

[Профиль] [ЛС]
Показать сообщения:    
Ответить на тему

Текущее время: Сегодня 05:08

Часовой пояс: GMT + 4



Вы не можете начинать темы
Вы не можете отвечать на сообщения
Вы не можете редактировать свои сообщения
Вы не можете удалять свои сообщения
Вы не можете голосовать в опросах
Вы не можете прикреплять файлы к сообщениям
Вы не можете скачивать файлы