13-й район: Кирпичные особняки / Brick Mansions (Камиль Деламарр / Camille Delamarre) [2014, Франция, Канада, Боевик, криминал, BDRip-AVC] Dub + Sub Eng + Original Eng

Ответить на тему
 
Автор Сообщение

user ®

Стаж: 7 лет 7 месяцев

Сообщений: 20008

Пост Пост: #1 от 21-Сен-2014 23:00

[Цитировать]

13-й район: Кирпичные особнякиBrick Mansions«Undercover and never Outgunned»
Страна: Франция, Канада
Жанр: Боевик, криминал
Год выпуска: 2014
Продолжительность: 01:30:10
Перевод: Профессиональный (дублированный) [Blu-ray RUS]
Cубтитры: английские
Оригинальная аудиодорожка: английский
Режиссер: Камиль Деламарр / Camille Delamarre
В ролях: Пол Уокер, Давид Белль, RZA, Гучи Бой, Каталина Денис, Аиша Исса, Карло Рота, Андреас Апергис, Ричард Земан, Роберт Мэйллет..
Описание: История детектива под прикрытием, ищущего оружие массового уничтожения, похищенное наркодилером гетто Кирпичные дома. Детектив обращается за помощью к знатоку района Лино, единственному человеку, который не боится бандитов.
Доп. информация:

Качество видео: BDRip-AVC |13-й район: Кирпичные особняки (2014) 1080p BD-Remux| HD club
Формат видео: MKV
Видео: 1046x438 (2,35:1), 23,976 fps, 3752 Кbps, 0.341 bit/pixel
Аудио: 48 kHz, AC3 Dolby Digital, 3/2 (L,C,R,l,r) + LFE ch, 448.00 kbps | DUB
Аудио 2: 48 kHz, AC3 Dolby Digital, 3/2 (L,C,R,l,r) + LFE ch, 448.00 kbps | ENG
Формат субтитров: softsub (SRT)
Доп. информация о субтитрах: отключаемые
MediaInfo
General
Unique ID : 183518325469461376651521503086875463421 (0x8A105805ABF6F630A30582543DC74EFD)
Complete name : E:\Мои рипы\13 район\13-й район Кирпичные особняки by_IVAN@190282.mkv
Format : Matroska
Format version : Version 4 / Version 2
File size : 2.93 GiB
Duration : 1h 30mn
Overall bit rate : 4 646 Kbps
Encoded date : UTC 2014-09-18 00:27:14
Writing application : mkvmerge v7.0.0 ('Where We Going') 64bit built on Jun 9 2014 15:16:27
Writing library : libebml v1.3.0 + libmatroska v1.4.1
DURATION : 01:24:44.249000000
NUMBER_OF_FRAMES : 868
NUMBER_OF_BYTES : 35951
_STATISTICS_WRITING_APP : mkvmerge v7.0.0 ('Where We Going') 64bit built on Jun 9 2014 15:16:27
_STATISTICS_WRITING_DATE_UTC : 2014-09-18 00:27:14
_STATISTICS_TAGS : BPS DURATION NUMBER_OF_FRAMES NUMBER_OF_BYTES
Video
ID : 1
Format : AVC
Format/Info : Advanced Video Codec
Format profile : High@L4.1
Format settings, CABAC : Yes
Format settings, ReFrames : 13 frames
Codec ID : V_MPEG4/ISO/AVC
Duration : 1h 30mn
Bit rate : 3 752 Kbps
Width : 1 046 pixels
Height : 438 pixels
Display aspect ratio : 2.35:1
Original display aspect ratio : 2.35:1
Frame rate mode : Constant
Frame rate : 24.000 fps
Color space : YUV
Chroma subsampling : 4:2:0
Bit depth : 8 bits
Scan type : Progressive
Bits/(Pixel*Frame) : 0.341
Stream size : 2.30 GiB (79%)
Writing library : x264 core 142 r2479kMod dd79a61
Encoding settings : cabac=1 / ref=13 / deblock=1:-3:-2 / analyse=0x3:0x113 / me=umh / subme=11 / psy=1 / fade_compensate=0.00 / psy_rd=1.00:0.15 / mixed_ref=1 / me_range=48 / chroma_me=1 / trellis=2 / 8x8dct=1 / cqm=0 / deadzone=21,11 / fast_pskip=0 / chroma_qp_offset=0 / threads=6 / lookahead_threads=6 / sliced_threads=0 / slices=10 / nr=0 / decimate=1 / interlaced=0 / bluray_compat=0 / constrained_intra=0 / fgo=0 / bframes=16 / b_pyramid=2 / b_adapt=2 / b_bias=0 / direct=3 / weightb=1 / open_gop=1 / weightp=2 / keyint=240 / keyint_min=23 / scenecut=40 / intra_refresh=0 / rc_lookahead=60 / rc=2pass / mbtree=1 / bitrate=3752 / ratetol=1.0 / qcomp=0.60 / qpmin=0 / qpmax=69 / qpstep=4 / cplxblur=20.0 / qblur=0.5 / vbv_maxrate=20000 / vbv_bufsize=25000 / nal_hrd=none / filler=0 / ip_ratio=1.40 / aq=1:1.00
Default : Yes
Forced : No
Color primaries : BT.709
Transfer characteristics : BT.709
Matrix coefficients : BT.709
Audio #1
ID : 2
Format : AC-3
Format/Info : Audio Coding 3
Mode extension : CM (complete main)
Format settings, Endianness : Big
Codec ID : A_AC3
Duration : 1h 30mn
Bit rate mode : Constant
Bit rate : 448 Kbps
Channel(s) : 6 channels
Channel positions : Front: L C R, Side: L R, LFE
Sampling rate : 48.0 KHz
Bit depth : 16 bits
Compression mode : Lossy
Stream size : 289 MiB (10%)
Default : Yes
Forced : No
Audio #2
ID : 3
Format : AC-3
Format/Info : Audio Coding 3
Mode extension : CM (complete main)
Format settings, Endianness : Big
Codec ID : A_AC3
Duration : 1h 30mn
Bit rate mode : Constant
Bit rate : 448 Kbps
Channel(s) : 6 channels
Channel positions : Front: L C R, Side: L R, LFE
Sampling rate : 48.0 KHz
Bit depth : 16 bits
Compression mode : Lossy
Stream size : 289 MiB (10%)
Default : No
Forced : No
Text
ID : 4
Format : UTF-8
Codec ID : S_TEXT/UTF8
Codec ID/Info : UTF-8 Plain Text
Default : Yes
Forced : No
x264 log
VIDEO ENCODING
x264 [info]: frame I:1213 Avg QP:11.83 size: 93714
x264 [info]: frame P:41455 Avg QP:15.77 size: 31504
x264 [info]: frame B:87173 Avg QP:17.06 size: 12775
x264 [info]: consecutive B-frames: 9.6% 8.7% 18.6% 23.8% 15.0% 17.8% 3.5% 0.9% 0.7% 0.3% 0.2% 0.2% 0.1% 0.1% 0.0% 0.1% 0.3%
x264 [info]: kb/s:3746.09
x264 [total]: encoded 129841 frames, 7.00 fps, 3746.09 kb/s, duration 5:08:59.02
Скриншот c названием фильма Скриншоты Сравнения
[url=http://***/forum/viewtopic.php?t=4816208]http://***/forum/viewtopic.php?t=4816208[/url]
http://screenshotcomparison.com/comparison/92043/picture:0
Скачать

Скачать торрент!

Как скачивать? · Что такое торрент? · Рейтинг и ограничения

Сайт не распространяет и не хранит электронные версии произведений, а лишь предоставляет доступ к создаваемому пользователями каталогу ссылок на торрент-файлы, которые содержат только списки хеш-сумм

[Профиль] [ЛС]
Показать сообщения:    
Ответить на тему

Текущее время: Сегодня 02:24

Часовой пояс: GMT + 4



Вы не можете начинать темы
Вы не можете отвечать на сообщения
Вы не можете редактировать свои сообщения
Вы не можете удалять свои сообщения
Вы не можете голосовать в опросах
Вы не можете прикреплять файлы к сообщениям
Вы не можете скачивать файлы