Операция Возмездие / Роджер Корман: Операция Негодяй / Operation Rogue(Брайан Клайд / Brian Clyde) [2014, США, боевик, DVDRip] MVO

Ответить на тему
 
Автор Сообщение

user ®

Стаж: 7 лет 7 месяцев

Сообщений: 20008

Пост Пост: #1 от 21-Сен-2014 23:00

[Цитировать]

Операция Негодяй / Operation Rogue
Страна: США
Жанр: боевик
Год выпуска: 2014
Продолжительность: 01:24:38
Перевод: Профессиональный (многоголосый закадровый)
Cубтитры: нет
Оригинальная аудиодорожка: нет
Режиссер: Брайан Клайд / Brian Clyde
В ролях: Билл Кэмпбелл, Трит Уильямс, Марк Дакаскос, София Пернас, Никко Манало, Генри Стрцалковский, Бон Вибар, Джереми Йен, Кил Родригез
Описание: В непроходимых джунглях Юго-Восточной Азии, террористами похищены материалы для создания химического оружия. Капитан Рэндалл Макс и его команда морских пехотинцев, отправляются на поиски террористов. Когда капитан Рэндалл убивает главаря террористов, его сын в отмеску похищает дочь Макса. Теперь Ренделу предстоит спасти свою дочь и остановить атаки террористов.
Доп. информация:

Сэмпл: http://multi-up.com/1000488
Качество видео: DVDRip
Формат видео: AVI
Видео: 640x352 (1.82:1), 25 fps, XviD build 50 ~1014 kbps avg, 0.18 bit/pixel
Аудио: 48 kHz, MPEG Layer 3, 2 ch, ~128.00 kbps avg
MediaInfo
General
Complete name : C:\Users\Вика\Desktop\Operation.Rogue.2014.DVDRip.avi
Format : AVI
Format/Info : Audio Video Interleave
File size : 698 MiB
Duration : 1h 24mn
Overall bit rate : 1 153 Kbps
Writing application : VirtualDubMod 1.5.10.3 | www.virtualdub-fr.org || (build 2550/release)
Writing library : VirtualDubMod build 2550/release
Video
ID : 0
Format : MPEG-4 Visual
Format profile : Advanced Simple@L5
Format settings, BVOP : Yes
Format settings, QPel : No
Format settings, GMC : No warppoints
Format settings, Matrix : Default (MPEG)
Codec ID : XVID
Codec ID/Hint : XviD
Duration : 1h 24mn
Bit rate : 1 015 Kbps
Width : 640 pixels
Height : 352 pixels
Display aspect ratio : 16:9
Frame rate : 25.000 fps
Color space : YUV
Chroma subsampling : 4:2:0
Bit depth : 8 bits
Scan type : Progressive
Compression mode : Lossy
Bits/(Pixel*Frame) : 0.180
Stream size : 614 MiB (88%)
Writing library : XviD 1.2.1 (UTC 2008-12-04)
Audio
ID : 1
Format : MPEG Audio
Format version : Version 1
Format profile : Layer 3
Codec ID : 55
Codec ID/Hint : MP3
Duration : 1h 24mn
Bit rate mode : Constant
Bit rate : 128 Kbps
Channel count : 2 channels
Sampling rate : 48.0 KHz
Compression mode : Lossy
Stream size : 77.5 MiB (11%)
Alignment : Aligned on interleaves
Interleave, duration : 40 ms (1.00 video frame)
Interleave, preload duration : 504 ms
Writing library : LAME3.99r
Encoding settings : -m s -V 4 -q 2 -lowpass 17 -b 128
Скриншоты
Скачать

Скачать торрент!

Как скачивать? · Что такое торрент? · Рейтинг и ограничения

Сайт не распространяет и не хранит электронные версии произведений, а лишь предоставляет доступ к создаваемому пользователями каталогу ссылок на торрент-файлы, которые содержат только списки хеш-сумм

[Профиль] [ЛС]
Показать сообщения:    
Ответить на тему

Текущее время: Сегодня 13:40

Часовой пояс: GMT + 4



Вы не можете начинать темы
Вы не можете отвечать на сообщения
Вы не можете редактировать свои сообщения
Вы не можете удалять свои сообщения
Вы не можете голосовать в опросах
Вы не можете прикреплять файлы к сообщениям
Вы не можете скачивать файлы