Последнее испытание Шаолиня / Деревянные люди Шаолиня / Shaolin Wooden Men / Shao Lin mu (Чи-Хва Чен / Chi-Hwa Chen) [1976, Китай, Гонконг, боевик, HDRip] MVO [Инис]

Ответить на тему
 
Автор Сообщение

user ®

Стаж: 13 лет

Сообщений: 15071

Пост Пост: #1 от 21-Сен-2014 08:40

[Цитировать]

Последнее испытание Шаолиня / Деревянные люди Шаолиня / Shaolin Wooden Men / Shao Lin mu- -Страна: Китай, Гонконг
Жанр: боевик
Год выпуска: 1976
Продолжительность: 01:47:08-Перевод: Профессиональный (многоголосый закадровый) [Инис]-Cубтитры: нет
Оригинальная аудиодорожка: нет
Режиссер: Чи-Хва Чен / Chi-Hwa Chen
В ролях: Джеки Чан, Цзинь Цзян, Янг Ли Хванг, Конг Ким, Юэнь Ланг, Мяо Тянь, Вэй Во То, Юэнь Бяо...
Описание: Молодой парень по прозвищу Молчун - сирота, который принимает обет молчания после гибели своего отца в драке с мастером боевых искусств. Живя в шаолиньском монастыре, Молчун сближается с опасным заключённым, который обучает его секретным способам смертельного Кунг-Фу. Видя сильное упорство и стремление юноши стать мастером Кунг-Фу, остальные мастера обучают его другим техникам этого боевого искусства. Но как только он становится мастером, он понимает, что обязательно должен использовать свою несравнимую силу для мести за убитого отца.
Релиз от -
Качество видео: HDRip
Формат видео: AVI
Видео: MPEG-4 Visual at 842 Кбит/сек; 688 x 288 (2.389) at 23.976 fps
Аудио: MPEG Audio at 128 Кбит/сек; 2 канала, 48,0 КГц
Автор -
MediaInfo
Общее
Полное имя : D:\Фильмы\Азиатские\Последнее испытание Шаолиня\Shaolin Wooden Men.1976.HDRip.XviD.745MB. rip by [Assassin's Creed].avi
Формат : AVI
Формат/Информация : Audio Video Interleave
Размер файла : 751 Мбайт
Продолжительность : 1 ч. 47 м.
Общий поток : 980 Кбит/сек
Программа кодирования : VirtualDubMod 1.5.10.3 | www.virtualdub-fr.org || (build 2550/release)
Библиотека кодирования : VirtualDubMod build 2550/release
Видео
Идентификатор : 0
Формат : MPEG-4 Visual
Профиль формата : Advanced Simple@L5
Параметр BVOP формата : 1
Параметр QPel формата : Нет
Параметр GMC формата : Без точки перехода
Параметр матрицы формата : Default (MPEG)
Идентификатор кодека : XVID
Идентификатор кодека/Подсказка : XviD
Продолжительность : 1 ч. 47 м.
Битрейт : 842 Кбит/сек
Ширина : 688 пикселей
Высота : 288 пикселей
Соотношение сторон : 2,40:1
Частота кадров : 23,976 кадра/сек
Цветовое пространство : YUV
Субдискретизация насыщенности : 4:2:0
Битовая глубина : 8 бит
Тип развёртки : Прогрессивная
Метод сжатия : С потерями
Бит/(Пиксели*Кадры) : 0.177
Размер потока : 646 Мбайт (86%)
Библиотека кодирования : XviD 1.2.1 (UTC 2008-12-04)
Аудио
Идентификатор : 1
Формат : MPEG Audio
Версия формата : Version 1
Профиль формата : Layer 3
Идентификатор кодека : 55
Идентификатор кодека/Подсказка : MP3
Продолжительность : 1 ч. 47 м.
Вид битрейта : Постоянный
Битрейт : 128 Кбит/сек
Каналы : 2 канала
Частота : 48,0 КГц
Метод сжатия : С потерями
Размер потока : 98,1 Мбайт (13%)
Выравнивание : Соединение по промежуткам
Продолжительность промежутка : 42 мс. (1,00 видеокадр)
Время предзагрузки промежутка : 504 мс.
Библиотека кодирования : LAME3.99r
Настройки программы : -m s -V 4 -q 2 -lowpass 17 -b 128
Скриншот c названием фильма Скриншоты
Скачать

Скачать торрент! Последнее испытание Шаолиня / Деревянные люди Шаолиня / Shaolin Wooden Men / Shao Lin mu (Чи-Хва Чен / Chi-Hwa Chen) [1976, Китай, Гонконг, боевик, HDRip] MVO [Инис]

Как скачивать? · Что такое торрент? · Рейтинг и ограничения

Сайт не распространяет и не хранит электронные версии произведений, а лишь предоставляет доступ к создаваемому пользователями каталогу ссылок на торрент-файлы, которые содержат только списки хеш-сумм

[Профиль] [ЛС]
Показать сообщения:    
Ответить на тему

Текущее время: Сегодня 20:26

Часовой пояс: GMT + 4



Вы не можете начинать темы
Вы не можете отвечать на сообщения
Вы не можете редактировать свои сообщения
Вы не можете удалять свои сообщения
Вы не можете голосовать в опросах
Вы не можете прикреплять файлы к сообщениям
Вы не можете скачивать файлы