Пойми меня, если сможешь / Incompresa (Азия Ардженто / Asia Argento) [2014, Италия, Франция, драма, WEB-DLRip] MVO

Ответить на тему
 
Автор Сообщение

user ®

Стаж: 7 лет 7 месяцев

Сообщений: 20008

Пост Пост: #1 от 21-Сен-2014 08:40

[Цитировать]

Пойми меня, если сможешь / Incompresa
Страна: Италия, Франция
Жанр: драма
Год выпуска: 2014
Продолжительность: 01:46:07
Перевод: Профессиональный (многоголосый закадровый)
Cубтитры: нет
Режиссер: Азия Ардженто / Asia Argento
В ролях: Анна Лу Кастольди, Шарлотта Генсбур, Габриель Гарко, Макс Газзе, Элис Пиа, Джастин Пирсон, Джастин Пирсон, Каролина Поччиони, Джулия Салерно, Джанмарко Тоньяцци
Описание: Ариа — классная девчонка, которая умеет дружить и стильно одеваться, но ей жутко одиноко: звездные родители со скандалом разводятся, сводным сестрам тоже не до неё, а злые одноклассники завидуют и строят козни. В компании любимого черного кота Ариа отправляется в свободное плавание по итальянским улицам...
Шарлотта Генсбур в роли богемной экспрессивной матери, опасный накал страстей, искрометный юмор и «полароидная» цветовая феерия 80-х. Яркая, а также очень близкая каждому картина режиссера Азии Ардженто — ведь кому не случалось почувствовать себя лишним в собственной семье.
Одну из ролей в котором исполнил подвижник DIY-андеграунда и лидер группы The Locust Джастин Пирсон.

Каннский кинофестиваль, 2014 год
Номинации: Особый взгляд Каннского кинофестиваля

Сэмпл: http://multi-up.com/1000137
Качество видео: WEB-DLRip
Формат видео: AVI
Видео: DivX, 720х432, 1769 кбит/с, 24 fps
Аудио: AC3, 192 кбит/с, 2 ch, 48 КГц
MediaInfo
Общее
Полное имя : E:\Incompresa_2014.avi
Формат : AVI
Формат/Информация : Audio Video Interleave
Размер файла : 1,46 Гбайт
Продолжительность : 1 ч. 46 м.
Общий поток : 1971 Кбит/сек
Программа кодирования : VirtualDubMod 1.5.10.3 | www.virtualdub-fr.org || (build 2550/release)
Библиотека кодирования : VirtualDubMod build 2550/release
Видео
Идентификатор : 0
Формат : MPEG-4 Visual
Профиль формата : Advanced Simple@L5
Параметр BVOP формата : 1
Параметр QPel формата : Нет
Параметр GMC формата : Без точки перехода
Параметр матрицы формата : Default (MPEG)
Идентификатор кодека : DX50
Идентификатор кодека/Подсказка : DivX 5
Продолжительность : 1 ч. 46 м.
Битрейт : 1769 Кбит/сек
Ширина : 720 пикселей
Высота : 432 пикселя
Соотношение сторон : 1,667
Частота кадров : 24,000 кадра/сек
Цветовое пространство : YUV
Субдискретизация насыщенности : 4:2:0
Битовая глубина : 8 бит
Тип развёртки : Прогрессивная
Метод сжатия : С потерями
Бит/(Пиксели*Кадры) : 0.237
Размер потока : 1,31 Гбайт (90%)
Библиотека кодирования : XviD 1.2.1 (UTC 2008-12-04)
Аудио
Идентификатор : 1
Формат : AC-3
Формат/Информация : Audio Coding 3
Расширение режима : CM (complete main)
Параметр Endianness формата : Big
Идентификатор кодека : 2000
Продолжительность : 1 ч. 46 м.
Вид битрейта : Постоянный
Битрейт : 192 Кбит/сек
Каналы : 2 канала
Расположение каналов : Front: L R
Частота : 48,0 КГц
Битовая глубина : 16 бит
Метод сжатия : С потерями
Размер потока : 146 Мбайт (10%)
Выравнивание : Разделение по промежуткам
Продолжительность промежутка : 42 мс. (1,00 видеокадр)
Время предзагрузки промежутка : 500 мс.
Скриншот c названием фильма Скриншоты
Скачать

Скачать торрент!

Как скачивать? · Что такое торрент? · Рейтинг и ограничения

Сайт не распространяет и не хранит электронные версии произведений, а лишь предоставляет доступ к создаваемому пользователями каталогу ссылок на торрент-файлы, которые содержат только списки хеш-сумм

[Профиль] [ЛС]
Показать сообщения:    
Ответить на тему

Текущее время: Сегодня 12:29

Часовой пояс: GMT + 4



Вы не можете начинать темы
Вы не можете отвечать на сообщения
Вы не можете редактировать свои сообщения
Вы не можете удалять свои сообщения
Вы не можете голосовать в опросах
Вы не можете прикреплять файлы к сообщениям
Вы не можете скачивать файлы