Что случилось прошлой ночью / About Last Night (Стив Пинк / Steve Pink) [2014, США, Мелодрама, комедия, BDRip] MVO

Ответить на тему
 
Автор Сообщение

user ®

Стаж: 7 лет 7 месяцев

Сообщений: 20008

Пост Пост: #1 от 21-Сен-2014 08:40

[Цитировать]

Что случилось прошлой ночью / About Last Night-«It's about compromise. It's about love. It's about a good wingman» -Страна: США
Студии: Screen Gems, Rainforest Films, Olive Bridge Entertainment
Жанр: Мелодрама, комедия
Год выпуска: 2014
Продолжительность: 01:40:14
Перевод: Профессиональный (многоголосый закадровый) | iTunes|
Cубтитры: нет
Оригинальная аудиодорожка: нет-Режиссер: Стив Пинк / Steve Pink-В ролях: Кевин Харт, Майкл Или, Реджина Холл, Джой Брайант, Кристофер МакДональд, Адам Родригес, Джо Ло Трульо, Пола Пэттон, Террелл Оуэнс, Катрин Шу...-Описание: История о двух парах, которые держат путь из бара в спальню, и оказываются подвергнуты испытанию в реальном мире…-Автор рипа: _Flash- -Качество видео: BDRip | BDRemux-DENCHIK_KIMURA|
Формат видео: AVI
Видео: 720x304, 23.976 fps, XviD build 73 ~1698 kbps avg, 0.324 bit/pixel
Аудио: 48 kHz, AC3 Dolby Digital, 3/2 (L,C,R,l,r) + LFE ch, ~384.00 kbps
-Дополнительно о фильме:
Производство, студия дубляжа, прокат:
MediaInfo
General
Complete name : D:\Rip's_By_Flash\About Last Night.BDRip.By_Flash.avi
Format : AVI
Format/Info : Audio Video Interleave
File size : 1.46 GiB
Duration : 1h 40mn
Overall bit rate : 2 091 Kbps
Writing application : VirtualDubMod 1.5.10.3 | www.virtualdub-fr.org || (build 2550/release)
Writing library : VirtualDubMod build 2550/release
Video
ID : 0
Format : MPEG-4 Visual
Format profile : Advanced Simple@L5
Format settings, BVOP : 1
Format settings, QPel : No
Format settings, GMC : No warppoints
Format settings, Matrix : Custom
Codec ID : XVID
Codec ID/Hint : XviD
Duration : 1h 40mn
Bit rate : 1 698 Kbps
Width : 720 pixels
Height : 304 pixels
Display aspect ratio : 2.35:1
Frame rate : 23.976 fps
Color space : YUV
Chroma subsampling : 4:2:0
Bit depth : 8 bits
Scan type : Progressive
Compression mode : Lossy
Bits/(Pixel*Frame) : 0.324
Stream size : 1.19 GiB (81%)
Writing library : XviD 73
Audio
ID : 1
Format : AC-3
Format/Info : Audio Coding 3
Mode extension : CM (complete main)
Format settings, Endianness : Big
Codec ID : 2000
Duration : 1h 40mn
Bit rate mode : Constant
Bit rate : 384 Kbps
Channel(s) : 6 channels
Channel positions : Front: L C R, Side: L R, LFE
Sampling rate : 48.0 KHz
Bit depth : 16 bits
Compression mode : Lossy
Stream size : 275 MiB (18%)
Alignment : Split accross interleaves
Interleave, duration : 42 ms (1.00 video frame)
Interleave, preload duration : 500 ms
Скриншоты
Скачать

Скачать торрент!

Как скачивать? · Что такое торрент? · Рейтинг и ограничения

Сайт не распространяет и не хранит электронные версии произведений, а лишь предоставляет доступ к создаваемому пользователями каталогу ссылок на торрент-файлы, которые содержат только списки хеш-сумм

[Профиль] [ЛС]
Показать сообщения:    
Ответить на тему

Текущее время: Сегодня 03:13

Часовой пояс: GMT + 4



Вы не можете начинать темы
Вы не можете отвечать на сообщения
Вы не можете редактировать свои сообщения
Вы не можете удалять свои сообщения
Вы не можете голосовать в опросах
Вы не можете прикреплять файлы к сообщениям
Вы не можете скачивать файлы