Малефисента / Maleficent (Роберт Стромберг / Robert Stromberg) [2014, США, Великобритания, фэнтези, семейный, мелодрама, приключения, BDRip-AVC] Dub + Original Eng+ Sub Rus, Eng, Fre

Ответить на тему
 
Автор Сообщение

user ®

Стаж: 7 лет 10 месяцев

Сообщений: 20008

Пост Пост: #1 от 21-Сен-2014 08:40

[Цитировать]

Малефисента / Maleficent Страна: США, Великобритания
Жанр: фэнтези, семейный, мелодрама, приключения
Год выпуска: 2014
Продолжительность: 01:37:28
Перевод: Профессиональный (дублированный) | Лицензия - BD CEE |
Cубтитры: русские (2), английские (2), французские
Оригинальная аудиодорожка: английский
Режиссер: Роберт Стромберг / Robert Stromberg
В ролях: Анджелина Джоли, Эль Фаннинг, Шарлто Копли, Лесли Мэнвилл, Имелда Стонтон, Джуно Темпл, Сэм Райли, Брентон Туэйтс, Кеннет Крэнэм, Сара Флинд...
Описание: Юная волшебница Малефисента вела уединенную жизнь в зачарованном лесу, окруженная сказочными существами, но однажды все изменилось… В её мир вторглись люди, которые принесли с собой разрушение и хаос, и Малефисенте пришлось встать на защиту своих подданных, призвав на помощь могущественные тёмные силы. В пылу борьбы Малефисента наложила страшное заклятие на новорожденную дочь короля, прекрасную Аврору. Но, наблюдая за тем, как растет маленькая принцесса, Малефисента начинает сомневаться в правильности своего поступка — ведь, возможно, именно Аврора может вдохнуть новую жизнь в волшебное лесное царство.
Качество видео: BDRip-AVC |1080p BD-Remux HDCLUB
Формат видео: MKV
Видео: AVC (x264), 1152x480 (2.40:1), ~3370 kbps, 23.976 fps, 0.254 bpp
Аудио 2: 48 kHz, AC3 Dolby Digital, 3/2 (L,C,R,l,r) + LFE ch, 448 kbps - Rus
Аудио 3: 48 kHz, AC3 Dolby Digital, 3/2 (L,C,R,l,r) + LFE ch, 448 kbps - Eng
Формат субтитров: softsub (SRT)

Релиз от: nnlabetik

x264|MediaInfo
x264 [info]

crop(0, 140, 0, -140)
raw [info]: 1152x480p 1:1 @ 24000/1001 fps (cfr)
x264 [info]: using SAR=1/1
x264 [info]: profile High, level 4.1
x264 [info]: frame I:1155 Avg QP:13.84 size:114214
x264 [info]: frame P:49205 Avg QP:15.82 size: 30753
x264 [info]: frame B:89854 Avg QP:17.91 size: 9116
x264 [info]: consecutive B-frames: 4.1% 22.5% 46.0% 7.5% 8.8% 4.9% 3.3% 0.9% 0.8% 0.2% 0.5% 0.3% 0.1% 0.1% 0.2%
x264 [info]: mb I I16..4: 4.4% 74.9% 20.7%
x264 [info]: mb P I16..4: 0.4% 7.6% 1.0% P16..4: 29.2% 36.5% 18.3% 0.0% 0.0% skip: 6.9%
x264 [info]: mb B I16..4: 0.1% 0.8% 0.2% B16..8: 28.9% 23.9% 5.4% direct: 6.2% skip:34.5% L0:38.7% L1:43.7% BI:17.7%
x264 [info]: 8x8 transform intra:81.8% inter:49.2%
x264 [info]: direct mvs spatial:88.6% temporal:11.4%
x264 [info]: coded y,uvDC,uvAC intra: 93.9% 87.9% 73.8% inter: 30.4% 22.4% 7.5%
x264 [info]: i16 v,h,dc,p: 40% 11% 6% 42%
x264 [info]: i8 v,h,dc,ddl,ddr,vr,hd,vl,hu: 7% 7% 8% 11% 15% 13% 14% 12% 14%
x264 [info]: i4 v,h,dc,ddl,ddr,vr,hd,vl,hu: 6% 5% 14% 9% 16% 13% 13% 11% 12%
x264 [info]: i8c dc,h,v,p: 47% 22% 14% 18%
x264 [info]: ref P L0: 66.0% 12.8% 7.4% 3.9% 2.6% 2.1% 1.9% 1.2% 1.3% 0.8%
x264 [info]: ref B L0: 77.5% 9.0% 4.8% 2.4% 2.5% 1.2% 1.0% 0.9% 0.8%
x264 [info]: kb/s:3371.06
encoded 140214 frames, 4.87 fps, 3371.06 kb/s
Общее
Уникальный идентификатор : 252074797939327984200641563256151807744 (0xBDA3D71492BA000F96F5B1293BFF1700)
Полное имя : Q:\Malefisenta\Malefisenta.2014.BDRip(AVC).mkv
Формат : Matroska
Версия формата : Version 4 / Version 2
Размер файла : 2,91 Гбайт
Продолжительность : 1 ч. 37 м.
Общий поток : 4269 Кбит/сек
Название фильма : Малефисента / Maleficent / 2014 -=NN@LIFE=-
Дата кодирования : UTC 2014-09-20 21:39:43
Программа кодирования : mkvmerge v7.2.0 ('On Every Street') 32bit built on Sep 13 2014 15:42:11
Библиотека кодирования : libebml v1.3.0 + libmatroska v1.4.1
DURATION : 01:37:28.064000000
NUMBER_OF_FRAMES : 182752
NUMBER_OF_BYTES : 327491584
_STATISTICS_WRITING_APP : mkvmerge v7.2.0 ('On Every Street') 32bit built on Sep 13 2014 15:42:11
_STATISTICS_WRITING_DATE_UTC : 2014-09-20 21:39:43
_STATISTICS_TAGS : BPS DURATION NUMBER_OF_FRAMES NUMBER_OF_BYTES
Видео
Идентификатор : 1
Формат : AVC
Формат/Информация : Advanced Video Codec
Профиль формата : High@L4.1
Параметр CABAC формата : Да
Параметр ReFrames формата : 10 кадров
Идентификатор кодека : V_MPEG4/ISO/AVC
Продолжительность : 1 ч. 37 м.
Битрейт : 3372 Кбит/сек
Ширина : 1152 пикселя
Высота : 480 пикселей
Соотношение сторон : 2,40:1
Режим частоты кадров : Постоянный
Частота кадров : 23,976 кадра/сек
Цветовое пространство : YUV
Субдискретизация насыщенности : 4:2:0
Битовая глубина : 8 бит
Тип развёртки : Прогрессивная
Бит/(Пиксели*Кадры) : 0.254
Размер потока : 2,24 Гбайт (77%)
Заголовок : Rip by nnlabetik
Библиотека кодирования : x264 core 142 r2479 dd79a61
Настройки программы : cabac=1 / ref=10 / deblock=1:-3:-2 / analyse=0x3:0x113 / me=umh / subme=11 / psy=1 / psy_rd=1.00:0.00 / mixed_ref=1 / me_range=32 / chroma_me=1 / trellis=2 / 8x8dct=1 / cqm=0 / deadzone=21,11 / fast_pskip=0 / chroma_qp_offset=-2 / threads=4 / lookahead_threads=1 / sliced_threads=0 / nr=0 / decimate=1 / interlaced=0 / bluray_compat=0 / constrained_intra=0 / bframes=14 / b_pyramid=0 / b_adapt=2 / b_bias=0 / direct=3 / weightb=1 / open_gop=0 / weightp=0 / keyint=240 / keyint_min=23 / scenecut=40 / intra_refresh=0 / rc_lookahead=60 / rc=2pass / mbtree=0 / bitrate=3372 / ratetol=1.2 / qcomp=0.70 / qpmin=0 / qpmax=69 / qpstep=4 / cplxblur=10.0 / qblur=0.5 / vbv_maxrate=62500 / vbv_bufsize=78125 / nal_hrd=none / filler=0 / ip_ratio=1.35 / pb_ratio=1.25 / aq=1:1.00
Язык : English
Default : Да
Forced : Нет
Основные цвета : BT.709
Характеристики трансфера : BT.709
Коэффициенты матрицы : BT.709
Аудио #1
Идентификатор : 2
Формат : AC-3
Формат/Информация : Audio Coding 3
Расширение режима : CM (complete main)
Параметр Endianness формата : Big
Идентификатор кодека : A_AC3
Продолжительность : 1 ч. 37 м.
Вид битрейта : Постоянный
Битрейт : 448 Кбит/сек
Каналы : 6 каналов
Расположение каналов : Front: L C R, Side: L R, LFE
Частота : 48,0 КГц
Битовая глубина : 16 бит
Метод сжатия : С потерями
Размер потока : 312 Мбайт (10%)
Заголовок : Dub - AC3 5.1@ 448 kbps
Язык : Russian
Default : Да
Forced : Нет
Аудио #2
Идентификатор : 3
Формат : AC-3
Формат/Информация : Audio Coding 3
Расширение режима : CM (complete main)
Параметр Endianness формата : Big
Идентификатор кодека : A_AC3
Продолжительность : 1 ч. 37 м.
Вид битрейта : Постоянный
Битрейт : 448 Кбит/сек
Каналы : 6 каналов
Расположение каналов : Front: L C R, Side: L R, LFE
Частота : 48,0 КГц
Битовая глубина : 16 бит
Метод сжатия : С потерями
Размер потока : 312 Мбайт (10%)
Язык : English
Default : Нет
Forced : Нет
Текст #1
Идентификатор : 4
Формат : UTF-8
Идентификатор кодека : S_TEXT/UTF8
Идентификатор кодека/Информация : UTF-8 Plain Text
Заголовок : full BD
Язык : Russian
Default : Нет
Forced : Нет
Текст #2
Идентификатор : 5
Формат : UTF-8
Идентификатор кодека : S_TEXT/UTF8
Идентификатор кодека/Информация : UTF-8 Plain Text
Заголовок : Нотабеноид
Язык : Russian
Default : Нет
Forced : Нет
Текст #3
Идентификатор : 6
Формат : UTF-8
Идентификатор кодека : S_TEXT/UTF8
Идентификатор кодека/Информация : UTF-8 Plain Text
Заголовок : full
Язык : English
Default : Нет
Forced : Нет
Текст #4
Идентификатор : 7
Формат : UTF-8
Идентификатор кодека : S_TEXT/UTF8
Идентификатор кодека/Информация : UTF-8 Plain Text
Заголовок : full SDH
Язык : English
Default : Нет
Forced : Нет
Текст #5
Идентификатор : 8
Формат : UTF-8
Идентификатор кодека : S_TEXT/UTF8
Идентификатор кодека/Информация : UTF-8 Plain Text
Заголовок : full BD - NN@LIFE
Язык : French
Default : Нет
Forced : Нет
Меню
00:00:00.000 : :Chapter 01
00:03:00.597 : :Chapter 02
00:08:10.948 : :Chapter 03
00:14:00.756 : :Chapter 04
00:19:10.607 : :Chapter 05
00:25:59.057 : :Chapter 06
00:33:09.737 : :Chapter 07
00:38:30.808 : :Chapter 08
00:43:21.140 : :Chapter 09
00:46:56.104 : :Chapter 10
00:51:11.943 : :Chapter 11
00:54:18.797 : :Chapter 12
00:58:37.722 : :Chapter 13
01:01:58.047 : :Chapter 14
01:05:09.989 : :Chapter 15
01:09:56.775 : :Chapter 16
01:15:40.619 : :Chapter 17
01:17:43.659 : :Chapter 18
01:25:44.931 : :Chapter 19
01:28:38.646 : :Chapter 20
01:37:27.842 : :Chapter 21
Скриншоты
Скачать

Скачать торрент!

Как скачивать? · Что такое торрент? · Рейтинг и ограничения

Сайт не распространяет и не хранит электронные версии произведений, а лишь предоставляет доступ к создаваемому пользователями каталогу ссылок на торрент-файлы, которые содержат только списки хеш-сумм

[Профиль] [ЛС]
Показать сообщения:    
Ответить на тему

Текущее время: Сегодня 10:09

Часовой пояс: GMT + 4



Вы не можете начинать темы
Вы не можете отвечать на сообщения
Вы не можете редактировать свои сообщения
Вы не можете удалять свои сообщения
Вы не можете голосовать в опросах
Вы не можете прикреплять файлы к сообщениям
Вы не можете скачивать файлы