Мятежник / Rebel (Лоуренс Рагхавендра / Lawrence Raghavendra) [2012, Индия, Боевик, Драма, HDRip] MVO (Red Media)

Ответить на тему
 
Автор Сообщение

user ®

Стаж: 12 лет

Сообщений: 15092

Пост Пост: #1 от 21-Сен-2014 05:30

[Цитировать]

Мятежник / Rebel
-Страна: Индия
Жанр: Боевик, драма
Год выпуска: 2012
Продолжительность: 02:50:10-Перевод: Профессиональный (многоголосый закадровый) - Red Media (ТК Индия ТВ)
Субтитры: нет--Режиссер: Лоуренс Рагхавендра / Lawrence Raghavendra-В ролях: Прабхас, Таманна, Дикша Сетх, Кришнам Раджу, Сурприт, Брахманандам, Мукеш Риши, Коваи Сарала--Описание: Он прилетел в Хайдарабад, преследуя главную цель в своей жизни — найти врага. Два года он искал его, движимый жаждой мести. Два мучительных года. Но враг силен и коварен, а у героя нет даже его изображения. Напасть на след врага можно через дочь его сподручного. Нандини сбежала от отца и окружающего его криминального мира в Бангкок.
Чтобы реализовать план, Риши нужно влюбить в себя девушку и обманом заставить ее помогать ему. Это непросто. Но кровь семьи, пролитая два года назад, стоит того, чтобы герой пошел на любые жертвы во имя свершения мести…-- --Качество видео: HDRip (исх. BDRip 1080p)
Формат видео: AVI-Видео: 672x288 (2.33:1), 23.976 fps, XviD build 50 ~1087 kbps avg, 0.23 bit/pixel
Аудио: 48 kHz, MPEG Layer 3, 2 ch, ~128.00 kbps
-
Сэмпл / Sample--Риппер и сведение звука: soso4eg-- -
-
-

Скриншот с названием
-
Скриншоты
-
MI
General
Complete name : C:\INDIYA\Myatezhnik.2012.HDRip.XviD-soso4eg.avi
Format : AVI
Format/Info : Audio Video Interleave
File size : 1.46 GiB
Duration : 2h 50mn
Overall bit rate : 1 225 Kbps
Movie name : Myatezhnik.2012.HDRip.XviD-soso4eg
Director : Rebel.2012.HDRip.XviD-soso4eg
Writing application : VirtualDubMod 1.5.10.3 | www.virtualdub-fr.org || (build 2550/release)
Copyright : специально для BitTorrent трекер *** (ex torrents.ru)
Comment : пер. Red Media
Video
ID : 0
Format : MPEG-4 Visual
Format profile : Advanced Simple@L5
Format settings, BVOP : 1
Format settings, QPel : No
Format settings, GMC : No warppoints
Format settings, Matrix : Default (H.263)
Codec ID : XVID
Codec ID/Hint : XviD
Duration : 2h 50mn
Bit rate : 1 088 Kbps
Width : 672 pixels
Height : 288 pixels
Display aspect ratio : 2.35:1
Frame rate : 23.976 fps
Color space : YUV
Chroma subsampling : 4:2:0
Bit depth : 8 bits
Scan type : Progressive
Compression mode : Lossy
Bits/(Pixel*Frame) : 0.234
Stream size : 1.29 GiB (89%)
Writing library : XviD 1.2.1 (UTC 2008-12-04)
Audio
ID : 1
Format : MPEG Audio
Format version : Version 1
Format profile : Layer 3
Mode : Joint stereo
Mode extension : MS Stereo
Codec ID : 55
Codec ID/Hint : MP3
Duration : 2h 50mn
Bit rate mode : Constant
Bit rate : 128 Kbps
Channel(s) : 2 channels
Sampling rate : 48.0 KHz
Compression mode : Lossy
Stream size : 156 MiB (10%)
Alignment : Aligned on interleaves
Interleave, duration : 42 ms (1.00 video frame)
Interleave, preload duration : 504 ms
Скачать

Скачать торрент! Мятежник / Rebel (Лоуренс Рагхавендра / Lawrence Raghavendra) [2012, Индия, Боевик, Драма, HDRip] MVO (Red Media)

Как скачивать? · Что такое торрент? · Рейтинг и ограничения

Сайт не распространяет и не хранит электронные версии произведений, а лишь предоставляет доступ к создаваемому пользователями каталогу ссылок на торрент-файлы, которые содержат только списки хеш-сумм

[Профиль] [ЛС]
Показать сообщения:    
Ответить на тему

Текущее время: Сегодня 16:29

Часовой пояс: GMT + 4



Вы не можете начинать темы
Вы не можете отвечать на сообщения
Вы не можете редактировать свои сообщения
Вы не можете удалять свои сообщения
Вы не можете голосовать в опросах
Вы не можете прикреплять файлы к сообщениям
Вы не можете скачивать файлы