Виноваты звезды / The Fault in Our Stars (Джош Бун / Josh Boone) [2014, США, драма, мелодрама, BDRip 720p] [Extended Cut] Dub + Ukr + VO (Матвеев) + Sub Rus, Ukr, Eng + Original Eng

Ответить на тему
 
Автор Сообщение

user ®

Стаж: 7 лет 7 месяцев

Сообщений: 20008

Пост Пост: #1 от 21-Сен-2014 05:30

[Цитировать]

Виноваты звезды / The Fault in Our Stars [Extended Cut] Страна: США
Студия: Temple Hill Entertainment
Жанр: Драма, мелодрама
Год выпуска: 2014
Продолжительность: 02:12:53
Перевод 1: Профессиональный (дублированный) Blu-ray CEE
Перевод 2: Одноголосый (закадровый)А. Матвеев
Cубтитры: русские(full,Матвеев),украинские,английские(full,SDH)
Оригинальная аудиодорожка: английский
Режиссер: Джош Бун / Josh Boone
В ролях: Шейлин Вудли, Энсел Элгорт, Лора Дерн, Сэм Трэммелл, Нат Вулф, Уиллем Дефо, Лотте Вербеек, Ана Дела Крус, Рэнди Ковиц. Тони Саладна
Описание: Хэйзел больна раком. Несмотря на то, что болезнь временно отступила, девушка не чувствует ни капли радости. Она ходит в группу поддержки, где однажды знакомится с Августом Уотерсом и моментально влюбляется в него. Август и Хэйзел отправляются в полное страсти и жизни путешествие, которое лишний раз покажет им, что весь смысл жизни можно найти в любом ее отрезке.

Тип релиза: BDRip 720p[HDAccess]
Контейнер: MKV
Видео: AVC, 1280x692, 6885kbps, 23.976 fps
Аудио 1: Russian: 48 kHz, DTS, 3/2 (L,C,R,l,r) + LFE ch, ~768.00 kbps avg |Blu-Ray CEE|
Аудио 2: Ukrainian: 48 kHz, AC3, 3/2 (L,C,R,l,r) + LFE ch, ~448.00 kbps avg |Blu-ray CEE|
Аудио 3: Russian: 48 kHz, AC3, 3/2 (L,C,R,l,r) + LFE ch, ~640.00 kbps avg |А. Матвеев|
Аудио 4: English: 48 kHz, AC3, 3/2 (L,C,R,l,r) + LFE ch, ~640.00 kbps |Original|
Чаптеры:есть

x264 log
x264 iNFO
x264 : frame I:1745 Avg QP:13.07 size:155216
x264 : frame P:38216 Avg QP:14.56 size: 70602
x264 : frame B:151223 Avg QP:15.36 size: 26768
x264 : consecutive B-frames: 1.4% 1.9% 3.5% 25.5% 14.9% 31.4% 7.0%
11.7% 1.3% 0.5% 0.8%
MediaInfo
General
Unique ID : 175975474066780054241946505269847588022 (0x8463A4BC4DE48FB791AEBEDF9A30FCB6)
Complete name : D:\The.Fault.in.our.Stars.2014.720p.BluRay.DD5.1.x264-Talian-.mkv
Format : Matroska
Format version : Version 2
File size : 8.86 GiB
Duration : 2h 12mn
Overall bit rate : 9 540 Kbps
Movie name : -Talian-
Encoded date : UTC 2014-09-19 08:23:23
Writing application : mkvmerge v5.7.0 ('The Whirlwind') built on Jul 8 2012 20:08:51
Writing library : libebml v1.2.3 + libmatroska v1.3.0
Video
ID : 1
Format : AVC
Format/Info : Advanced Video Codec
Format profile : High@L4.1
Format settings, CABAC : Yes
Format settings, ReFrames : 9 frames
Codec ID : V_MPEG4/ISO/AVC
Duration : 2h 12mn
Bit rate : 6 867 Kbps
Width : 1 280 pixels
Height : 692 pixels
Display aspect ratio : 1.850
Frame rate : 23.976 fps
Color space : YUV
Chroma subsampling : 4:2:0
Bit depth : 8 bits
Scan type : Progressive
Bits/(Pixel*Frame) : 0.323
Stream size : 6.37 GiB (72%)
Title : HDAccess
Writing library : x264 core 142 r2453kMod ea0ca51
Encoding settings : cabac=1 / ref=9 / deblock=1:-3:-3 / analyse=0x3:0x133 / me=umh / subme=10 / psy=1 / fade_compensate=0.00 / psy_rd=1.00:0.00 / mixed_ref=1 / me_range=24 / chroma_me=1 / trellis=2 / 8x8dct=1 / cqm=0 / deadzone=21,11 / fast_pskip=0 / chroma_qp_offset=-2 / threads=12 / lookahead_threads=3 / sliced_threads=0 / nr=0 / decimate=0 / interlaced=0 / bluray_compat=0 / constrained_intra=0 / fgo=0 / bframes=10 / b_pyramid=2 / b_adapt=2 / b_bias=0 / direct=3 / weightb=1 / open_gop=0 / weightp=2 / keyint=250 / keyint_min=23 / scenecut=40 / intra_refresh=0 / rc=crf / mbtree=0 / crf=15.8000 / qcomp=0.75 / qpmin=0 / qpmax=69 / qpstep=4 / ip_ratio=1.30 / pb_ratio=1.20 / aq=1:0.90
Language : English
Default : Yes
Forced : No
Audio #1
ID : 2
Format : DTS
Format/Info : Digital Theater Systems
Codec ID : A_DTS
Duration : 2h 12mn
Bit rate mode : Constant
Bit rate : 755 Kbps
Channel(s) : 6 channels
Channel positions : Front: L C R, Side: L R, LFE
Sampling rate : 48.0 KHz
Bit depth : 24 bits
Compression mode : Lossy
Stream size : 717 MiB (8%)
Title : DUB- Blu-ray CEE
Language : Russian
Default : Yes
Forced : No
Audio #2
ID : 3
Format : AC-3
Format/Info : Audio Coding 3
Mode extension : CM (complete main)
Format settings, Endianness : Big
Codec ID : A_AC3
Duration : 2h 12mn
Bit rate mode : Constant
Bit rate : 448 Kbps
Channel(s) : 6 channels
Channel positions : Front: L C R, Side: L R, LFE
Sampling rate : 48.0 KHz
Bit depth : 16 bits
Compression mode : Lossy
Stream size : 426 MiB (5%)
Title : DUB- Blu-ray CEE
Language : Ukrainian
Default : No
Forced : No
Audio #3
ID : 4
Format : AC-3
Format/Info : Audio Coding 3
Mode extension : CM (complete main)
Format settings, Endianness : Big
Codec ID : A_AC3
Duration : 2h 12mn
Bit rate mode : Constant
Bit rate : 640 Kbps
Channel(s) : 6 channels
Channel positions : Front: L C R, Side: L R, LFE
Sampling rate : 48.0 KHz
Bit depth : 16 bits
Compression mode : Lossy
Stream size : 608 MiB (7%)
Title : VO-А. Матвеев
Language : Russian
Default : No
Forced : No
Audio #4
ID : 5
Format : AC-3
Format/Info : Audio Coding 3
Mode extension : CM (complete main)
Format settings, Endianness : Big
Codec ID : A_AC3
Duration : 2h 12mn
Bit rate mode : Constant
Bit rate : 640 Kbps
Channel(s) : 6 channels
Channel positions : Front: L C R, Side: L R, LFE
Sampling rate : 48.0 KHz
Bit depth : 16 bits
Compression mode : Lossy
Stream size : 608 MiB (7%)
Title : Original
Language : English
Default : No
Forced : No
Text #1
ID : 6
Format : UTF-8
Codec ID : S_TEXT/UTF8
Codec ID/Info : UTF-8 Plain Text
Title : Sub-full
Language : Russian
Default : No
Forced : No
Text #2
ID : 7
Format : UTF-8
Codec ID : S_TEXT/UTF8
Codec ID/Info : UTF-8 Plain Text
Title : Sub-А. Матвеев
Language : Russian
Default : No
Forced : No
Text #3
ID : 8
Format : UTF-8
Codec ID : S_TEXT/UTF8
Codec ID/Info : UTF-8 Plain Text
Title : Sub-full
Language : Ukrainian
Default : No
Forced : No
Text #4
ID : 9
Format : UTF-8
Codec ID : S_TEXT/UTF8
Codec ID/Info : UTF-8 Plain Text
Title : Sub-full
Language : English
Default : No
Forced : No
Text #5
ID : 10
Format : UTF-8
Codec ID : S_TEXT/UTF8
Codec ID/Info : UTF-8 Plain Text
Title : Sub-SDH
Language : English
Default : No
Forced : No
Menu
00:00:00.000 : en:00:00:00.000
00:02:34.529 : en:00:02:34.529
00:06:25.594 : en:00:06:25.594
00:13:01.906 : en:00:13:01.906
00:15:07.615 : en:00:15:07.615
00:18:12.591 : en:00:18:12.591
00:21:05.681 : en:00:21:05.681
00:24:59.790 : en:00:24:59.790
00:28:35.380 : en:00:28:35.380
00:31:30.806 : en:00:31:30.806
00:38:12.874 : en:00:38:12.874
00:41:51.217 : en:00:41:51.217
00:49:19.832 : en:00:49:19.832
00:56:41.606 : en:00:56:41.606
01:02:27.327 : en:01:02:27.327
01:05:40.979 : en:01:05:40.979
01:08:17.427 : en:01:08:17.427
01:14:57.743 : en:01:14:57.743
01:20:58.479 : en:01:20:58.479
01:25:30.333 : en:01:25:30.333
01:29:04.339 : en:01:29:04.339
01:34:50.476 : en:01:34:50.476
01:43:59.024 : en:01:43:59.024
01:46:27.089 : en:01:46:27.089
01:52:18.482 : en:01:52:18.482
01:57:25.455 : en:01:57:25.455
02:01:09.304 : en:02:01:09.304
02:06:16.402 : en:02:06:16.402
Скриншоты
Source vs Encode


Скачать

Скачать торрент!

Как скачивать? · Что такое торрент? · Рейтинг и ограничения

Сайт не распространяет и не хранит электронные версии произведений, а лишь предоставляет доступ к создаваемому пользователями каталогу ссылок на торрент-файлы, которые содержат только списки хеш-сумм

[Профиль] [ЛС]
Показать сообщения:    
Ответить на тему

Текущее время: Сегодня 12:11

Часовой пояс: GMT + 4



Вы не можете начинать темы
Вы не можете отвечать на сообщения
Вы не можете редактировать свои сообщения
Вы не можете удалять свои сообщения
Вы не можете голосовать в опросах
Вы не можете прикреплять файлы к сообщениям
Вы не можете скачивать файлы