Дело Кэти Левинтжер / Записи Левенджера / The Levenger Tapes (Марк Эдвин Робинсон / Mark Edwin Robinson) [2013, США, ужасы, триллер, HDTV 1080i] MVO

Ответить на тему
 
Автор Сообщение

user ®

Стаж: 7 лет 7 месяцев

Сообщений: 20008

Пост Пост: #1 от 21-Сен-2014 05:30

[Цитировать]

Дело Кэти Левинтжер / Записи Левенджера / The Levenger Tapes Страна: США
Жанр: ужасы, триллер
Год выпуска: 2013
Продолжительность: 01:28:55
Перевод: Профессиональный (многоголосый закадровый)
Cубтитры: нет
Режиссер: Марк Эдвин Робинсон / Mark Edwin Robinson
В ролях: Джоанна Э. Брэдди, Лили Мирожник, Морган Крантц, Крис Малки, Аарон Дженнингс Хартнелл, Мария Олсен, Джефф Прайд...
Описание: Детективы смотрят найденную на месте преступления видеозапись, которая, как они надеются, поможет им определить местонахождение трех пропавших без вести студентов. С каждым просмотренным кадром пленки им становится все более и более тревожно за их судьбу: на записи студенты находят окровавленное платье 8-летней девочки, поисками которой они и занялись…
[url=http://***/forum/tracker.php?nm=%D0%94%D0%B5%D0%BB%D0%BE%20%D0%9A%D1%8D%D1%82%D0%B8%20%D0%9B%D0%B5%D0%B2%D0%B8%D0%BD%D1%82%D0%B6%D0%B5%D1%80%20%2F%20%D0%97%D0%B0%D0%BF%D0%B8%D1%81%D0%B8%20%D0%9B%D0%B5%D0%B2%D0%B5%D0%BD%D0%B4%D0%B6%D0%B5%D1%80%D0%B0%20%2F%20The%20Levenger%20Tapes]Все раздачи "Дело Кэти Левинтжер / Записи Левенджера / The Levenger Tapes"[/url]
Сэмпл: http://sendfile.su/1025033
Кинопоиск: http://www.kinopoisk.ru/film/518363/

Тип релиза: HDTV 1080i
Контейнер: TS
Видео: AVC/H.264, PAL, 1920x1080 (16:9), 6650 Кбит/сек, 25.000 fps
Аудио 1: русский, MP-2, 48000 Hz, 192 Кбит/сек, 2 ch
Аудио 2: русский, AC3, 48000 Hz, 448 Кбит/сек, 5.1 ch
MediaInfo
Общее
Идентификатор : 1 (0x1)
Полное имя : C:\Users\User\Desktop\Записи Левенджера.ts
Формат : MPEG-TS
Размер файла : 4,77 Гбайт
Продолжительность : 1 ч. 28 м.
Режим общего битрейта : Переменный
Общий поток : 7676 Кбит/сек
Видео
Идентификатор : 3021 (0xBCD)
Идентификатор меню : 1 (0x1)
Формат : AVC
Формат/Информация : Advanced Video Codec
Профиль формата : Main@L4.0
Параметр CABAC формата : Да
Параметр ReFrames формата : 3 кадра
Идентификатор кодека : 27
Продолжительность : 1 ч. 28 м.
Битрейт : 6650 Кбит/сек
Ширина : 1920 пикселей
Высота : 1080 пикселей
Соотношение сторон : 16:9
Частота кадров : 25,000 кадров/сек
Стандарт вещания : Component
Цветовое пространство : YUV
Субдискретизация насыщенности : 4:2:0
Битовая глубина : 8 бит
Тип развёртки : Чересстрочная
Порядок развёртки : Верхнее поле первое
Бит/(Пиксели*Кадры) : 0.128
Размер потока : 4,13 Гбайт (87%)
Основные цвета : BT.709
Характеристики трансфера : BT.709
Коэффициенты матрицы : BT.709
Аудио #1
Идентификатор : 3022 (0xBCE)
Идентификатор меню : 1 (0x1)
Формат : MPEG Audio
Версия формата : Version 1
Профиль формата : Layer 2
Идентификатор кодека : 3
Продолжительность : 1 ч. 28 м.
Вид битрейта : Постоянный
Битрейт : 192 Кбит/сек
Каналы : 2 канала
Частота : 48,0 КГц
Метод сжатия : С потерями
Размер потока : 122 Мбайт (3%)
Язык : Russian
Аудио #2
Идентификатор : 3023 (0xBCF)
Идентификатор меню : 1 (0x1)
Формат : AC-3
Формат/Информация : Audio Coding 3
Расширение режима : CM (complete main)
Параметр Endianness формата : Big
Идентификатор кодека : 6
Продолжительность : 1 ч. 28 м.
Вид битрейта : Постоянный
Битрейт : 448 Кбит/сек
Каналы : 6 каналов
Расположение каналов : Front: L C R, Side: L R, LFE
Частота : 48,0 КГц
Битовая глубина : 16 бит
Метод сжатия : С потерями
Размер потока : 285 Мбайт (6%)
Язык : Russian
Скриншотс названием фильма Скриншоты
Скачать

Скачать торрент!

Как скачивать? · Что такое торрент? · Рейтинг и ограничения

Сайт не распространяет и не хранит электронные версии произведений, а лишь предоставляет доступ к создаваемому пользователями каталогу ссылок на торрент-файлы, которые содержат только списки хеш-сумм

[Профиль] [ЛС]
Показать сообщения:    
Ответить на тему

Текущее время: Сегодня 05:09

Часовой пояс: GMT + 4



Вы не можете начинать темы
Вы не можете отвечать на сообщения
Вы не можете редактировать свои сообщения
Вы не можете удалять свои сообщения
Вы не можете голосовать в опросах
Вы не можете прикреплять файлы к сообщениям
Вы не можете скачивать файлы