Ясное озеро / Clear Lake, WI (Брайан Иде / Brian Ide) [2009, США, триллер, HDTV 1080i] DVO

Ответить на тему
 
Автор Сообщение

user ®

Стаж: 7 лет 7 месяцев

Сообщений: 20008

Пост Пост: #1 от 21-Сен-2014 05:30

[Цитировать]

Ясное озеро / Clear Lake, WI«Bury the past or it will Bury you»
Страна: США
Жанр: триллер
Год выпуска: 2009
Продолжительность: 01:23:41
Перевод: Профессиональный (двухголосый закадровый)
Cубтитры: нет
Режиссер: Брайан Иде / Brian Ide
В ролях: Дастин Бут, Морган Симпсон, Гриннелл Моррис, Ши Не Нилсон, Карла Тоутз, Хезер Симпсон, Майкл Мэдсен, Жаклин Арройо, Карсон Он, Майк Басон
Описание: В 1994, жители небольшого города — Ясное Озеро, стали жертвой странной и ужасной болезни. Влиятельный местный пастор назвал вспышку странной болезни, наказанием за людские грехи. К тому времени, когда правоохранительные органы и сотрудники министерства здравоохранения прибыли, чтобы найти причину вспышки, уже тринадцать человек пропали без вести, а большинство горожан покинуло город.
Правительство эвакуировало оставшихся граждан и изолировало город. Пятнадцать лет спустя, режиссер-документалист разыскал четырех выживающих и убедил их возвратиться в Ясное Озеро, чтобы воспроизвести их историю, но после возвращения в пустой город, странные вещи начинают происходить снова…

Сэмпл: http://rusfolder.com/41778180
Тип релиза: HDTV 1080i
Контейнер: TS
Видео: AVC/H.264, PAL, 1920x1080 (16:9), 7430 Кбит/сек, 25.000 fps
Аудио : русский, AC3, 48000 Hz, 448 Кбит/сек, 6 ch
MediaInfo
Общее
Идентификатор : 1 (0x1)
Полное имя : C:\Users\User\Desktop\Ясное озеро.ts
Формат : MPEG-TS
Размер файла : 4,82 Гбайт
Продолжительность : 1 ч. 23 м.
Режим общего битрейта : Переменный
Общий поток : 8240 Кбит/сек
Максимальный общий битрейт : 35,5 Мбит/сек
Видео
Идентификатор : 4113 (0x1011)
Идентификатор меню : 1 (0x1)
Формат : AVC
Формат/Информация : Advanced Video Codec
Профиль формата : Main@L4.0
Параметр CABAC формата : Да
Параметр ReFrames формата : 3 кадра
Идентификатор кодека : 27
Продолжительность : 1 ч. 23 м.
Вид битрейта : Переменный
Битрейт : 7380 Кбит/сек
Максимальный битрейт : 40,0 Мбит/сек
Ширина : 1920 пикселей
Высота : 1080 пикселей
Соотношение сторон : 16:9
Частота кадров : 25,000 кадров/сек
Стандарт вещания : Component
Цветовое пространство : YUV
Субдискретизация насыщенности : 4:2:0
Битовая глубина : 8 бит
Тип развёртки : Чересстрочная
Порядок развёртки : Верхнее поле первое
Бит/(Пиксели*Кадры) : 0.142
Размер потока : 4,31 Гбайт (90%)
Аудио
Идентификатор : 4352 (0x1100)
Идентификатор меню : 1 (0x1)
Формат : AC-3
Формат/Информация : Audio Coding 3
Расширение режима : CM (complete main)
Параметр Endianness формата : Big
Идентификатор кодека : 129
Продолжительность : 1 ч. 23 м.
Вид битрейта : Постоянный
Битрейт : 448 Кбит/сек
Каналы : 6 каналов
Расположение каналов : Front: L C R, Side: L R, LFE
Частота : 48,0 КГц
Битовая глубина : 16 бит
Метод сжатия : С потерями
Размер потока : 268 Мбайт (5%)
Язык : Russian
Скриншот с названием фильма Скриншоты
Скачать

Скачать торрент!

Как скачивать? · Что такое торрент? · Рейтинг и ограничения

Сайт не распространяет и не хранит электронные версии произведений, а лишь предоставляет доступ к создаваемому пользователями каталогу ссылок на торрент-файлы, которые содержат только списки хеш-сумм

[Профиль] [ЛС]
Показать сообщения:    
Ответить на тему

Текущее время: Сегодня 02:12

Часовой пояс: GMT + 4



Вы не можете начинать темы
Вы не можете отвечать на сообщения
Вы не можете редактировать свои сообщения
Вы не можете удалять свои сообщения
Вы не можете голосовать в опросах
Вы не можете прикреплять файлы к сообщениям
Вы не можете скачивать файлы