Упакованные (Петр Гладилин) [2013, Россия, Комедия, приключения, HDTVRip]

Ответить на тему
 
Автор Сообщение

user ®

Стаж: 7 лет 7 месяцев

Сообщений: 20008

Пост Пост: #1 от 20-Сен-2014 21:40

[Цитировать]

Упакованные
Страна: Россия
Студия: Продюсерская кинокомпания "Киномир"
Жанр: Комедия, приключения
Год выпуска: 2013
Продолжительность: 01:25:11
Перевод: Не требуется
Cубтитры: нет
Режиссер: Петр Гладилин
В ролях: Камиль Ларин, Татьяна Яковенко, Иван Жидков, Елена Кутырева, Иван Кокорин, Иван Замотаев, Елена Аросьева
Описание: Уж если день не задался, готовься к крупным проблемам. А если разругался с любимой женой, ни в коем случае не садись за руль. Обязательно будут неприятности. Но крутой бизнесмен Сергей Камаев сел за руль и обеспечил проблемы себе, своей жене Марго, ее бывшему любовнику Ивану и даже Анечке, молодой жене Ивана. Судьба-злодейка распорядилась так, что они все вместе ночью окажутся в одной машине, да еще и в шикарном кабриолете, упакованные в целлофан во весь рост, и их будут преследовать два отвратительных типа на ржавом пикапе.
Сэмпл
Тип релиза: HDTVRip
Контейнер: AVI
Видео: 720x384 (1,85:1), 25 fps, XviD, 1598 Кбит/с, 0.231 bit/pixel
Аудио: 48 kHz, АС3, 6 ch, 448 kbps avg
MediaInfo
Общее
Полное имя : D:\Video\Upakovannye.2013.HDTVRip.MediaClub.avi
Формат : AVI
Формат/Информация : Audio Video Interleave
Размер файла : 1,22 Гбайт
Продолжительность : 1 ч. 25 м.
Общий поток : 2056 Кбит/сек
Программа кодирования : VirtualDubMod 1.5.10.3 | www.virtualdub-fr.org || (build 2550/release)
Библиотека кодирования : VirtualDubMod build 2550/release
Видео
Идентификатор : 0
Формат : MPEG-4 Visual
Профиль формата : Advanced Simple@L5
Параметр BVOP формата : 1
Параметр QPel формата : Нет
Параметр GMC формата : Без точки перехода
Параметр матрицы формата : Выборочная
Идентификатор кодека : XVID
Идентификатор кодека/Подсказка : XviD
Продолжительность : 1 ч. 25 м.
Битрейт : 1598 Кбит/сек
Ширина : 720 пикселей
Высота : 384 пикселя
Соотношение сторон : 1,85:1
Частота кадров : 25,000 кадров/сек
Цветовое пространство : YUV
Субдискретизация насыщенности : 4:2:0
Битовая глубина : 8 бит
Тип развёртки : Прогрессивная
Метод сжатия : С потерями
Бит/(Пиксели*Кадры) : 0.231
Размер потока : 974 Мбайт (78%)
Библиотека кодирования : XviD 73
Аудио
Идентификатор : 1
Формат : AC-3
Формат/Информация : Audio Coding 3
Расширение режима : CM (complete main)
Параметр Endianness формата : Big
Идентификатор кодека : 2000
Продолжительность : 1 ч. 25 м.
Вид битрейта : Постоянный
Битрейт : 448 Кбит/сек
Каналы : 6 каналов
Расположение каналов : Front: L C R, Side: L R, LFE
Частота : 48,0 КГц
Битовая глубина : 16 бит
Метод сжатия : С потерями
Размер потока : 273 Мбайт (22%)
Выравнивание : Разделение по промежуткам
Продолжительность промежутка : 40 мс. (1,00 видеокадр)
Время предзагрузки промежутка : 500 мс.
Скриншоты
Скачать

Скачать торрент!

Как скачивать? · Что такое торрент? · Рейтинг и ограничения

Сайт не распространяет и не хранит электронные версии произведений, а лишь предоставляет доступ к создаваемому пользователями каталогу ссылок на торрент-файлы, которые содержат только списки хеш-сумм

[Профиль] [ЛС]
Показать сообщения:    
Ответить на тему

Текущее время: Сегодня 13:37

Часовой пояс: GMT + 4



Вы не можете начинать темы
Вы не можете отвечать на сообщения
Вы не можете редактировать свои сообщения
Вы не можете удалять свои сообщения
Вы не можете голосовать в опросах
Вы не можете прикреплять файлы к сообщениям
Вы не можете скачивать файлы