Maлefиceнtа / Маlефiсеnt (Po6ерт Cтpoм6ерг / RоЬert StrоmЬerg) [2014, США, Великобритания, фэнтези, семейный, мелодрама, приключения, BDRip-AVC] Dub + Original (Eng) + Subs (Rus, Eng)

Ответить на тему
 
Автор Сообщение

user ®

Стаж: 7 лет 7 месяцев

Сообщений: 20008

Пост Пост: #1 от 20-Сен-2014 15:20

[Цитировать]

Maлefиceнtа / Маlефiсеnt
«Не верьте сказкам»
- Страна: США, Великобритания | Roth Films, Walt Disney Pictures
Жанр: фэнтези, семейный, мелодрама, приключения
Год выпуска: 2014
Продолжительность: 01:37:28 час.
Перевод: Профессиональный (полное дублирование) - Blu-ray EUR
Субтитры: Русские (2 вида), Английские (полные, SDH).
Оригинальная аудиодорожка: Английская
Навигация по главам: Присутствует (20 глав)
Режиссер: Роберт Стромберг / Robert Stromberg
В ролях: Анджелина Джоли, Эль Фаннинг, Шарлто Копли, Сэм Райли, Имелда Стонтон, Джуно Темпл, Лесли Мэнвилл, Брентон Туэйтс, Кеннет Крэнэм, Изобель Моллой
Описание: Юная волшебница Малефисента вела уединенную жизнь в зачарованном лесу, окруженная сказочными существами, но однажды все изменилось… В её мир вторглись люди, которые принесли с собой разрушение и хаос, и Малефисенте пришлось встать на защиту своих подданных, призвав на помощь могущественные тёмные силы. В пылу борьбы Малефисента наложила страшное заклятие на новорожденную дочь короля, прекрасную Аврору. Но, наблюдая за тем, как растет маленькая принцесса, Малефисента начинает сомневаться в правильности своего поступка — ведь, возможно, именно Аврора может вдохнуть новую жизнь в волшебное лесное царство.

Качество: BDRip-AVC => Сэмпл | исх. Малефисента / Maleficent (2014) Blu-ray EUR 1080p AVC DD5.1 - HDCLUB
Формат видео: MKV
Видео: 1152x480p (2.40:1), 23,976 fps, H.264 ~2 580 kbps avg, 0.190 bit/pixel
Аудио #1: 48 kHz, AC3, 3/2 (L,C,R,l,r) + LFE ch, ~448.00 kbps avg | Профессиональный (полное дублирование) - Blu-ray EUR
Аудио #2: 48 kHz, AC3, 3/2 (L,C,R,l,r) + LFE ch, ~448.00 kbps avg | Оригинал (английский)
Формат субтитров: softsub (SRT)
MediaInfo | log x264
log x264
raw [info]: 1152x480p 1:1 @ 24000/1001 fps (cfr)
x264 [info]: using SAR=1/1
x264 [info]: using cpu capabilities: MMX2 SSE2Fast SSSE3 SSE4.2 AVX
x264 [info]: profile High, level 4.1
x264 [info]: cabac=1 ref=13 deblock=1:-2:-2 analyse=0x3:0x133 me=umh subme=11 psy=1 fade_compensate=0.00 psy_rd=1.00:0.00 mixed_ref=1 me_range=32 chroma_me=1 trellis=2 8x8dct=1 cqm=0 deadzone=21,11 fast_pskip=0 chroma_qp_offset=-2 threads=6 lookahead_threads=1 sliced_threads=0 nr=0 decimate=1 interlaced=0 bluray_compat=0 constrained_intra=0 fgo=0 bframes=13 b_pyramid=2 b_adapt=2 b_bias=0 direct=1 weightb=1 open_gop=0 weightp=2 keyint=250 keyint_min=23 scenecut=40 intra_refresh=0 rc_lookahead=40 rc=crf mbtree=0 crf=18.5000 qcomp=0.70 qpmin=0 qpmax=69 qpstep=4 vbv_maxrate=50000 vbv_bufsize=62500 crf_max=0.0 nal_hrd=none filler=0 ip_ratio=1.30 pb_ratio=1.20 aq=3:0.95
x264 [info]: frame I:1185 Avg QP:16.00 size: 86479
x264 [info]: frame P:29762 Avg QP:17.31 size: 27217
x264 [info]: frame B:109266 Avg QP:19.47 size: 8914
x264 [info]: consecutive B-frames: 2.1% 2.4% 8.2% 19.8% 18.2% 32.6% 8.8% 1.6% 2.3% 1.1% 1.4% 0.6% 0.7% 0.3%
x264 [info]: mb I I16..4: 4.5% 75.7% 19.9%
x264 [info]: mb P I16..4: 0.4% 9.3% 1.4% P16..4: 28.1% 33.5% 15.4% 3.3% 0.4% skip: 8.2%
x264 [info]: mb B I16..4: 0.0% 1.1% 0.2% B16..8: 31.6% 21.6% 4.0% direct: 5.5% skip:36.0% L0:40.7% L1:45.0% BI:14.3%
x264 [info]: 8x8 transform intra:81.8% inter:54.4%
x264 [info]: coded y,uvDC,uvAC intra: 93.9% 88.4% 67.7% inter: 22.7% 17.2% 2.7%
x264 [info]: i16 v,h,dc,p: 24% 8% 3% 65%
x264 [info]: i8 v,h,dc,ddl,ddr,vr,hd,vl,hu: 6% 6% 5% 11% 16% 14% 15% 13% 14%
x264 [info]: i4 v,h,dc,ddl,ddr,vr,hd,vl,hu: 6% 5% 9% 10% 17% 14% 15% 12% 13%
x264 [info]: i8c dc,h,v,p: 42% 23% 16% 19%
x264 [info]: Weighted P-Frames: Y:6.9% UV:4.6%
x264 [info]: ref P L0: 48.2% 11.1% 16.9% 6.2% 4.6% 3.2% 2.8% 1.5% 1.4% 1.1% 1.0% 0.9% 0.9% 0.2% 0.0%
x264 [info]: ref B L0: 75.6% 11.0% 5.4% 2.4% 1.6% 1.2% 0.9% 0.6% 0.5% 0.4% 0.3% 0.1%
x264 [info]: ref B L1: 92.3% 7.7%
x264 [info]: kb/s:2580.75
encoded 140213 frames, 3.51 fps, 2580.75 kb/s
Общее
Уникальный идентификатор : 243940719718904689553380094704641864681 (0xB785460FA4BE04A2A9B3858476D373E9)
Полное имя : D:\my rips\Maleficent.2014.BDRip-AVC.Rus.Eng.Subs.by.zOJIOtOi.mkv
Формат : Matroska
Версия формата : Version 4 / Version 2
Размер файла : 2,37 Гбайт
Продолжительность : 1 ч. 37 м.
Общий поток : 3479 Кбит/сек
Дата кодирования : UTC 2014-09-19 14:52:14
Программа кодирования : mkvmerge v7.0.0 ('Where We Going') 64bit built on Jun 9 2014 15:16:27
Библиотека кодирования : libebml v1.3.0 + libmatroska v1.4.1
_STATISTICS_WRITING_APP : mkvmerge v7.0.0 ('Where We Going') 64bit built on Jun 9 2014 15:16:27
_STATISTICS_WRITING_DATE_UTC : 2014-09-19 14:52:14
_STATISTICS_TAGS : BPS DURATION NUMBER_OF_FRAMES NUMBER_OF_BYTES
DURATION : 01:27:50.628000000
NUMBER_OF_FRAMES : 667
NUMBER_OF_BYTES : 30199
Attachment : Yes
Видео
Идентификатор : 1
Формат : AVC
Формат/Информация : Advanced Video Codec
Профиль формата : High@L4.1
Параметр CABAC формата : Да
Параметр ReFrames формата : 13 кадров
Идентификатор кодека : V_MPEG4/ISO/AVC
Продолжительность : 1 ч. 37 м.
Битрейт : 2514 Кбит/сек
Ширина : 1152 пикселя
Высота : 480 пикселей
Соотношение сторон : 2,40:1
Режим частоты кадров : Постоянный
Частота кадров : 23,976 кадра/сек
Цветовое пространство : YUV
Субдискретизация насыщенности : 4:2:0
Битовая глубина : 8 бит
Тип развёртки : Прогрессивная
Бит/(Пиксели*Кадры) : 0.190
Размер потока : 1,71 Гбайт (72%)
Заголовок : Maleficent.2014.BDRip-AVC.by.zOJIOtOi
Библиотека кодирования : x264 core 142 r2453kMod ea0ca51
Настройки программы : cabac=1 / ref=13 / deblock=1:-2:-2 / analyse=0x3:0x133 / me=umh / subme=11 / psy=1 / fade_compensate=0.00 / psy_rd=1.00:0.00 / mixed_ref=1 / me_range=32 / chroma_me=1 / trellis=2 / 8x8dct=1 / cqm=0 / deadzone=21,11 / fast_pskip=0 / chroma_qp_offset=-2 / threads=6 / lookahead_threads=1 / sliced_threads=0 / nr=0 / decimate=1 / interlaced=0 / bluray_compat=0 / constrained_intra=0 / fgo=0 / bframes=13 / b_pyramid=2 / b_adapt=2 / b_bias=0 / direct=1 / weightb=1 / open_gop=0 / weightp=2 / keyint=250 / keyint_min=23 / scenecut=40 / intra_refresh=0 / rc_lookahead=40 / rc=crf / mbtree=0 / crf=18.5000 / qcomp=0.70 / qpmin=0 / qpmax=69 / qpstep=4 / vbv_maxrate=50000 / vbv_bufsize=62500 / crf_max=0.0 / nal_hrd=none / filler=0 / ip_ratio=1.30 / pb_ratio=1.20 / aq=3:0.95
Язык : English
Default : Да
Forced : Нет
DURATION : 01:37:28.051000000
NUMBER_OF_FRAMES : 140213
NUMBER_OF_BYTES : 1886546295
_STATISTICS_WRITING_APP : mkvmerge v7.0.0 ('Where We Going') 64bit built on Jun 9 2014 15:16:27
_STATISTICS_WRITING_DATE_UTC : 2014-09-19 14:52:14
_STATISTICS_TAGS : BPS DURATION NUMBER_OF_FRAMES NUMBER_OF_BYTES
Основные цвета : BT.709
Характеристики трансфера : BT.709
Коэффициенты матрицы : BT.709
Аудио #1
Идентификатор : 2
Формат : AC-3
Формат/Информация : Audio Coding 3
Расширение режима : CM (complete main)
Параметр Endianness формата : Big
Идентификатор кодека : A_AC3
Продолжительность : 1 ч. 37 м.
Вид битрейта : Постоянный
Битрейт : 448 Кбит/сек
Каналы : 6 каналов
Расположение каналов : Front: L C R, Side: L R, LFE
Частота : 48,0 КГц
Битовая глубина : 16 бит
Метод сжатия : С потерями
Размер потока : 312 Мбайт (13%)
Заголовок : Профессиональный (полное дублирование) - BluRay EUR | DD 5.1 @ 448 kbps
Язык : Russian
Default : Да
Forced : Нет
Аудио #2
Идентификатор : 3
Формат : AC-3
Формат/Информация : Audio Coding 3
Расширение режима : CM (complete main)
Параметр Endianness формата : Big
Идентификатор кодека : A_AC3
Продолжительность : 1 ч. 37 м.
Вид битрейта : Постоянный
Битрейт : 448 Кбит/сек
Каналы : 6 каналов
Расположение каналов : Front: L C R, Side: L R, LFE
Частота : 48,0 КГц
Битовая глубина : 16 бит
Метод сжатия : С потерями
Размер потока : 312 Мбайт (13%)
Заголовок : Оригинал (английский) | DD 5.1 @ 448 kbps
Язык : English
Default : Нет
Forced : Нет
Текст #1
Идентификатор : 4
Формат : UTF-8
Идентификатор кодека : S_TEXT/UTF8
Идентификатор кодека/Информация : UTF-8 Plain Text
Заголовок : Full
Язык : Russian
Default : Нет
Forced : Нет
Текст #2
Идентификатор : 5
Формат : UTF-8
Идентификатор кодека : S_TEXT/UTF8
Идентификатор кодека/Информация : UTF-8 Plain Text
Заголовок : Notabenoid
Язык : Russian
Default : Нет
Forced : Нет
Текст #3
Идентификатор : 6
Формат : UTF-8
Идентификатор кодека : S_TEXT/UTF8
Идентификатор кодека/Информация : UTF-8 Plain Text
Заголовок : Full
Язык : English
Default : Нет
Forced : Нет
Текст #4
Идентификатор : 7
Формат : UTF-8
Идентификатор кодека : S_TEXT/UTF8
Идентификатор кодека/Информация : UTF-8 Plain Text
Заголовок : SDH
Язык : English
Default : Нет
Forced : Нет
Меню
00:00:00.000 : en:Chapter 1
00:03:00.597 : en:Chapter 2
00:08:10.949 : en:Chapter 3
00:14:00.757 : en:Chapter 4
00:19:10.608 : en:Chapter 5
00:25:59.057 : en:Chapter 6
00:33:09.738 : en:Chapter 7
00:38:30.808 : en:Chapter 8
00:43:21.140 : en:Chapter 9
00:46:56.105 : en:Chapter 10
00:51:11.944 : en:Chapter 11
00:54:18.797 : en:Chapter 12
00:58:37.723 : en:Chapter 13
01:01:58.048 : en:Chapter 14
01:05:09.989 : en:Chapter 15
01:09:56.776 : en:Chapter 16
01:15:40.619 : en:Chapter 17
01:17:43.659 : en:Chapter 18
01:25:44.931 : en:Chapter 19
01:28:38.647 : en:Chapter 20
Source vs rip by zOJIOtOi
---------------------------------------------------------------------------source---------------------------------------------------------------------------

----------------------------------------------------------------------rip by zOJIOtOi----------------------------------------------------------------------
Скриншоты Релиз групп:
Скачать

Скачать торрент!

Как скачивать? · Что такое торрент? · Рейтинг и ограничения

Сайт не распространяет и не хранит электронные версии произведений, а лишь предоставляет доступ к создаваемому пользователями каталогу ссылок на торрент-файлы, которые содержат только списки хеш-сумм

[Профиль] [ЛС]
Показать сообщения:    
Ответить на тему

Текущее время: Сегодня 11:44

Часовой пояс: GMT + 4



Вы не можете начинать темы
Вы не можете отвечать на сообщения
Вы не можете редактировать свои сообщения
Вы не можете удалять свои сообщения
Вы не можете голосовать в опросах
Вы не можете прикреплять файлы к сообщениям
Вы не можете скачивать файлы