Ной / Noah (Даррен Аронофски / Darren Aronofsky) [2014, США, драма, приключения, фэнтези, HDRip] AVO (А. Гаврилов)

Ответить на тему
 
Автор Сообщение

user ®

Стаж: 7 лет 7 месяцев

Сообщений: 20008

Пост Пост: #1 от 20-Сен-2014 15:20

[Цитировать]

Ной / Noah Страна: США
Жанр: драма, приключения, фэнтези
Год выпуска: 2014
Продолжительность: 02:17:53
Перевод: Авторский (одноголосый закадровый)
Cубтитры: нет
Оригинальная аудиодорожка: нет
Режиссер: Даррен Аронофски / Darren Aronofsky
В ролях: Расселл Кроу, Дженнифер Коннелли, Рэй Уинстон, Энтони Хопкинс, Эмма Уотсон, Логан Лерман, Дуглас Бут, Ник Нолти, Марк Марголис, Кевин Дюран, Лео МакХью Кэрролл, Мартон Чокаш, Финн Уиттрок, Мэдисон Девенпорт, Гэвин Касалежно, Нолан Гросс, Скайлар Бурк, Дакота Гойо, Ариан Райнхарт, Адам Гриффит и др.
Описание: В этом фильме, главная роль в котором досталась Расселу Кроу, зрителю дается возможность, вместе с главными героями пережить библейскую историю о мужественном и мудром человеке, по имени Ной. Мир по уши погряз в грехах и насилии, Господь решил очистить Землю, оставив только избранных. Грядет всемирный потоп, наш герой начинает строить большой ковчег, но никто ему не верит, больше того, многие считают Ноя, просто сумасшедшим. Его уже не остановить, он должен выполнить важную миссию, после которой мир возродится заново. Собрав родных и близких, множество зверей и птиц, он отправится в опасное путешествие на огромном ковчеге...
Sample
Релиз: GIDRANT300

Качество видео: HDRip (Noah.2014.1080p.BluRay.AVC.DTS-HD.MA.7.1-HDAccess_CeyCey72)
Формат видео: AVI
Видео: XviD 720x384 23.976fps 1120kbps
Аудио: Dolby AC3 48000Hz 6ch 384kbps
Доп. информация
За перевод Гаврилова большое спасибо пользователям форума hdtracker.org:
_MyxAmoP_; kondratzx; timur; rydanes; Brown15; aladdin; ultrajeka; saenwert; ZeRoNe; Chistobaev; dunhill200; lexal; v111o; dwser; nimph; Schmulke; Role; Gross1978; hulahup; Диммон; HDKing; kinobbk; Pain_70; therox.
MediaInfo
General
Complete name : D:\Фильмы\Noy.2014.А.HDRip.1450MB.avi
Format : AVI
Format/Info : Audio Video Interleave
File size : 1.46 GiB
Duration : 2h 17mn
Overall bit rate : 1 513 Kbps
Writing application : VirtualDubModRus 1.5.10.2 (build 2542/release)
Writing library : VirtualDubMod build 2542/release
Video
ID : 0
Format : MPEG-4 Visual
Format profile : Advanced Simple@L5
Format settings, BVOP : Yes
Format settings, QPel : No
Format settings, GMC : No warppoints
Format settings, Matrix : Default (H.263)
Codec ID : XVID
Codec ID/Hint : XviD
Duration : 2h 17mn
Bit rate : 1 120 Kbps
Width : 720 pixels
Height : 384 pixels
Display aspect ratio : 1.85:1
Frame rate : 23.976 fps
Color space : YUV
Chroma subsampling : 4:2:0
Bit depth : 8 bits
Scan type : Progressive
Compression mode : Lossy
Bits/(Pixel*Frame) : 0.169
Stream size : 1.08 GiB (74%)
Writing library : XviD 73
Audio
ID : 1
Format : AC-3
Format/Info : Audio Coding 3
Mode extension : CM (complete main)
Format settings, Endianness : Big
Codec ID : 2000
Duration : 2h 17mn
Bit rate mode : Constant
Bit rate : 384 Kbps
Channel(s) : 6 channels
Channel positions : Front: L C R, Side: L R, LFE
Sampling rate : 48.0 KHz
Bit depth : 16 bits
Compression mode : Lossy
Stream size : 379 MiB (25%)
Alignment : Split accross interleaves
Interleave, duration : 42 ms (1.00 video frame)
Interleave, preload duration : 500 ms
Скриншоты
Скачать

Скачать торрент!

Как скачивать? · Что такое торрент? · Рейтинг и ограничения

Сайт не распространяет и не хранит электронные версии произведений, а лишь предоставляет доступ к создаваемому пользователями каталогу ссылок на торрент-файлы, которые содержат только списки хеш-сумм

[Профиль] [ЛС]
Показать сообщения:    
Ответить на тему

Текущее время: Сегодня 05:52

Часовой пояс: GMT + 4



Вы не можете начинать темы
Вы не можете отвечать на сообщения
Вы не можете редактировать свои сообщения
Вы не можете удалять свои сообщения
Вы не можете голосовать в опросах
Вы не можете прикреплять файлы к сообщениям
Вы не можете скачивать файлы