Билокация / Bilocation (Мари Асато / Mari Asato) [2013, Япония, Фантастика, триллер, HDRip] VO (den904 & DeadSno)

Ответить на тему
 
Автор Сообщение

user ®

Стаж: 13 лет

Сообщений: 15071

Пост Пост: #1 от 20-Сен-2014 01:10

[Цитировать]

Билокация / Bilocation
Страна: Япония
Жанр: Фантастика, триллер
Год выпуска: 2013
Продолжительность: 02:12:05
Перевод: Двухголосый, закадровый ---- den904 & DeadSno по тексту Akira9
Cубтитры: нет
Режиссер: Мари Асато / Mari Asato
В ролях: Йосуке Ашари, Асами Мидзукава, Вакана Сакаи, Кент Сенга, Кэнити Такито, Косукэ Тоёхара
Описание: Билокация - сверхестественное явление, при котором один человек появляется одновременно в нескольких местах. Что, если ваше альтер эго имеет мощные способности? Что, если оно будет мешать вам стоять у него на пути? Вы примете его или убьёте?
Билокация - это альтер эго, кошмар, который ставит под угрозу не только вашу идентичность, но и ваше существование.
Такамура Синобу - начинающий художник, которая проводит все свои дни в одиночестве в своей комнате, рисуя картину. Однажды, она обвиняется в использовании поддельных денег в супермаркете по соседству. Синобу предъявляют в качестве доказательства видеозапись с камер наблюдения магазина, и девушка с ужасом понимает, что на видеозаписи изображена она сама, но такого не может быть, ведь она никогда не могла совершить подобного, и, самое главное, в момент совершения преступления она находилась дома. Студент университета Митараи Такуми - член специального клуба "Билокация", деятельность которого посвящена защите людей от этого явления. И, теперь, им надо, рискуя своей жизнью, доказать невиновность Синобу…
Дополнительная информация благодаря КОЛОБКУ
После титров доступно другое мировоззрение СМОТРИТЕ

Качество видео: HDRip
Формат видео: AVI
Видео: Xvid 720x400 23.975fps 1522 Kbps
Аудио: MP3 48000Hz stereo 192kbps
MediaInfo
General
Complete name : E:\Films\New\Bilokatsiya.2013.HDrip.avi
Format : AVI
Format/Info : Audio Video Interleave
File size : 1.59 GiB
Duration : 2h 12mn
Overall bit rate : 1 724 Kbps
Writing library : VirtualDub build 35491/release
Video
ID : 0
Format : MPEG-4 Visual
Format profile : Advanced Simple@L5
Format settings, BVOP : Yes
Format settings, QPel : No
Format settings, GMC : No warppoints
Format settings, Matrix : Default (H.263)
Codec ID : XVID
Codec ID/Hint : XviD
Duration : 2h 12mn
Bit rate : 1 522 Kbps
Width : 720 pixels
Height : 400 pixels
Display aspect ratio : 16:9
Frame rate : 23.976 fps
Color space : YUV
Chroma subsampling : 4:2:0
Bit depth : 8 bits
Scan type : Progressive
Compression mode : Lossy
Bits/(Pixel*Frame) : 0.220
Stream size : 1.40 GiB (88%)
Writing library : XviD 64
Audio
ID : 1
Format : MPEG Audio
Format version : Version 1
Format profile : Layer 3
Mode : Joint stereo
Codec ID : 55
Codec ID/Hint : MP3
Duration : 2h 12mn
Bit rate mode : Constant
Bit rate : 192 Kbps
Channel(s) : 2 channels
Sampling rate : 48.0 KHz
Compression mode : Lossy
Stream size : 181 MiB (11%)
Alignment : Split accross interleaves
Interleave, duration : 42 ms (1.00 video frame)
Interleave, preload duration : 500 ms
Скриншоты
Скачать

Скачать торрент! Билокация / Bilocation (Мари Асато / Mari Asato) [2013, Япония, Фантастика, триллер, HDRip] VO (den904 & DeadSno)

Как скачивать? · Что такое торрент? · Рейтинг и ограничения

Сайт не распространяет и не хранит электронные версии произведений, а лишь предоставляет доступ к создаваемому пользователями каталогу ссылок на торрент-файлы, которые содержат только списки хеш-сумм

[Профиль] [ЛС]
Показать сообщения:    
Ответить на тему

Текущее время: Сегодня 12:25

Часовой пояс: GMT + 4



Вы не можете начинать темы
Вы не можете отвечать на сообщения
Вы не можете редактировать свои сообщения
Вы не можете удалять свои сообщения
Вы не можете голосовать в опросах
Вы не можете прикреплять файлы к сообщениям
Вы не можете скачивать файлы