Последнее испытание Шаолиня / Деревянные люди Шаолиня / Shaolin Wooden Men / Shao Lin mu (Чи-Хва Чен / Chi-Hwa Chen) [1976, Китай, Гонконг, боевик, HDRip] MVO [Инис]

Ответить на тему
 
Автор Сообщение

user ®

Стаж: 13 лет

Сообщений: 15071

Пост Пост: #1 от 20-Сен-2014 01:10

[Цитировать]

Последнее испытание Шаолиня / Деревянные люди Шаолиня / Shaolin Wooden Men / Shao Lin mu- -Страна: Китай, Гонконг
Жанр: боевик
Год выпуска: 1976
Продолжительность: 01:47:08-Перевод: Профессиональный (многоголосый закадровый) [Инис]-Cубтитры: нет
Оригинальная аудиодорожка: нет
Режиссер: Чи-Хва Чен / Chi-Hwa Chen
В ролях: Джеки Чан, Цзинь Цзян, Янг Ли Хванг, Конг Ким, Юэнь Ланг, Мяо Тянь, Вэй Во То, Юэнь Бяо...
Описание: Молодой парень по прозвищу Молчун - сирота, который принимает обет молчания после гибели своего отца в драке с мастером боевых искусств. Живя в шаолиньском монастыре, Молчун сближается с опасным заключённым, который обучает его секретным способам смертельного Кунг-Фу. Видя сильное упорство и стремление юноши стать мастером Кунг-Фу, остальные мастера обучают его другим техникам этого боевого искусства. Но как только он становится мастером, он понимает, что обязательно должен использовать свою несравнимую силу для мести за убитого отца.
Релиз от -
Сэмпл: http://multi-up.com/1000203
Качество видео: HDRip
Формат видео: AVI
Видео: MPEG-4 Visual at 1754 Кбит/сек; 720 x 304 (2.368) at 23.976 fps
Аудио: AC-3 at 192 Кбит/сек; 2 канала, 48,0 КГц
Автор -
MediaInfo
Общее
Полное имя : D:\Фильмы\Азиатские\Последнее испытание Шаолиня\Shaolin Wooden Men.1976.HDRip.XviD.1400MB. rip by [Assassin's Creed].avi
Формат : AVI
Формат/Информация : Audio Video Interleave
Размер файла : 1,46 Гбайт
Продолжительность : 1 ч. 47 м.
Общий поток : 1955 Кбит/сек
Программа кодирования : VirtualDubMod 1.5.10.3 | www.virtualdub-fr.org || (build 2550/release)
Библиотека кодирования : VirtualDubMod build 2550/release
Видео
Идентификатор : 0
Формат : MPEG-4 Visual
Профиль формата : Advanced Simple@L5
Параметр BVOP формата : 1
Параметр QPel формата : Нет
Параметр GMC формата : Без точки перехода
Параметр матрицы формата : Default (MPEG)
Идентификатор кодека : XVID
Идентификатор кодека/Подсказка : XviD
Продолжительность : 1 ч. 47 м.
Битрейт : 1754 Кбит/сек
Ширина : 720 пикселей
Высота : 304 пикселя
Соотношение сторон : 2,35:1
Частота кадров : 23,976 кадра/сек
Цветовое пространство : YUV
Субдискретизация насыщенности : 4:2:0
Битовая глубина : 8 бит
Тип развёртки : Прогрессивная
Метод сжатия : С потерями
Бит/(Пиксели*Кадры) : 0.334
Размер потока : 1,31 Гбайт (90%)
Библиотека кодирования : XviD 1.2.1 (UTC 2008-12-04)
Аудио
Идентификатор : 1
Формат : AC-3
Формат/Информация : Audio Coding 3
Расширение режима : CM (complete main)
Параметр Endianness формата : Big
Идентификатор кодека : 2000
Продолжительность : 1 ч. 47 м.
Вид битрейта : Постоянный
Битрейт : 192 Кбит/сек
Каналы : 2 канала
Расположение каналов : Front: L R
Частота : 48,0 КГц
Битовая глубина : 16 бит
Метод сжатия : С потерями
Размер потока : 147 Мбайт (10%)
Выравнивание : Разделение по промежуткам
Продолжительность промежутка : 42 мс. (1,00 видеокадр)
Время предзагрузки промежутка : 500 мс.
Скриншот c названием фильма Скриншоты
Скачать

Скачать торрент! Последнее испытание Шаолиня / Деревянные люди Шаолиня / Shaolin Wooden Men / Shao Lin mu (Чи-Хва Чен / Chi-Hwa Chen) [1976, Китай, Гонконг, боевик, HDRip] MVO [Инис]

Как скачивать? · Что такое торрент? · Рейтинг и ограничения

Сайт не распространяет и не хранит электронные версии произведений, а лишь предоставляет доступ к создаваемому пользователями каталогу ссылок на торрент-файлы, которые содержат только списки хеш-сумм

[Профиль] [ЛС]
Показать сообщения:    
Ответить на тему

Текущее время: Сегодня 11:56

Часовой пояс: GMT + 4



Вы не можете начинать темы
Вы не можете отвечать на сообщения
Вы не можете редактировать свои сообщения
Вы не можете удалять свои сообщения
Вы не можете голосовать в опросах
Вы не можете прикреплять файлы к сообщениям
Вы не можете скачивать файлы