Бегущий в лабиринте / The Maze Runner (Уэс Болл / Wes Ball) [2014, США, фантастика, боевик, CamRip] Dub

Ответить на тему
 
Автор Сообщение

user ®

Стаж: 7 лет 7 месяцев

Сообщений: 20008

Пост Пост: #1 от 20-Сен-2014 01:10

[Цитировать]

Бегущий в лабиринте / The Maze Runner
Страна: США
Жанр: фантастика, боевик
Год выпуска: 2014
Продолжительность: 01:45:11
Перевод: Профессиональный (дублированный)
Cубтитры: нет
Режиссер: Уэс Болл / Wes Ball
В ролях: Дилан О’Брайен, Амл Амин, Ки Хонг Ли, Блейк Купер, Томас Сэнгстер,
Уилл Поултер, Декстер Дарден, Кая Скоделарио, Крис Шеффилд, Джо Адлер
Описание:
Представьте себе ровное, как стол место, вымощенное камнем. Вокруг него высоченные стены. За стенами - Лабиринт. В Лабиринте живут жуткие существа - гриверы. А в центре, на том самом ровном столе - в Приюте - уже два года живут пять десятков мальчишек. Они не помнят, кто они, они не знают, почему оказались в Приюте, они знают лишь, что им надо отсюда вырваться. В отличие от "Повелителя мух" Голдинга, мальчишки здесь не передрались и не поубивали друг друга. Они образовали коммуну, где от каждого по способностям, и пытаются найти выход из Лабиринта. К сожалению, пока безуспешно. Бал правят гриверы и кушают мальчиков за милую душу. И вот в Приюте появляется сначала таинственный паренек Томас, а вслед за ним еще более таинственная девушка невероятной красоты, Тереза...
Сэмпл
Качество видео: CamRip
Формат видео: AVI
Видео: XviD, 704x320, 30 fps, 1736 kb/s
Аудио: MP3,192 kb/s (2ch),48 kHz (Профессиональный (полное дублирование))
MediaInfo
General
Complete name : D:\ФИЛЬМЫ\ДИВИДИ РИПЫ\Бегущий в лабиринте_приключения_фантастика_ЭКРАНКА_2014\The_Maze_Runner_2014_Mi_CAMRip..avi
Format : AVI
Format/Info : Audio Video Interleave
File size : 1.41 GiB
Duration : 1h 45mn
Overall bit rate : 1 919 Kbps
Writing application : VirtualDubMod 1.5.10.2 (build 2540/release)
Writing library : VirtualDubMod build 2540/release
Video
ID : 0
Format : MPEG-4 Visual
Format profile : Advanced Simple@L5
Format settings, BVOP : Yes
Format settings, QPel : No
Format settings, GMC : No warppoints
Format settings, Matrix : Default (MPEG)
Codec ID : XVID
Codec ID/Hint : XviD
Duration : 1h 45mn
Bit rate : 1 716 Kbps
Width : 704 pixels
Height : 320 pixels
Display aspect ratio : 2.2:1
Frame rate : 30.000 fps
Color space : YUV
Chroma subsampling : 4:2:0
Bit depth : 8 bits
Scan type : Progressive
Compression mode : Lossy
Bits/(Pixel*Frame) : 0.254
Stream size : 1.26 GiB (89%)
Writing library : XviD 1.2.1 (UTC 2008-12-04)
Audio
ID : 1
Format : MPEG Audio
Format version : Version 1
Format profile : Layer 3
Mode : Joint stereo
Codec ID : 55
Codec ID/Hint : MP3
Duration : 1h 45mn
Bit rate mode : Constant
Bit rate : 192 Kbps
Channel count : 2 channels
Sampling rate : 48.0 KHz
Compression mode : Lossy
Stream size : 144 MiB (10%)
Alignment : Aligned on interleaves
Interleave, duration : 33 ms (1.00 video frame)
Interleave, preload duration : 504 ms
Скриншоты Скриншот с названием фильма
Скачать

Скачать торрент!

Как скачивать? · Что такое торрент? · Рейтинг и ограничения

Сайт не распространяет и не хранит электронные версии произведений, а лишь предоставляет доступ к создаваемому пользователями каталогу ссылок на торрент-файлы, которые содержат только списки хеш-сумм

[Профиль] [ЛС]
Показать сообщения:    
Ответить на тему

Текущее время: Сегодня 13:36

Часовой пояс: GMT + 4



Вы не можете начинать темы
Вы не можете отвечать на сообщения
Вы не можете редактировать свои сообщения
Вы не можете удалять свои сообщения
Вы не можете голосовать в опросах
Вы не можете прикреплять файлы к сообщениям
Вы не можете скачивать файлы