Не в парнях счастье (Кира Ангелина) [2014, Россия, Мелодрама, HDTV 1080i]

Ответить на тему
 
Автор Сообщение

user ®

Стаж: 7 лет 7 месяцев

Сообщений: 20008

Пост Пост: #1 от 19-Сен-2014 22:00

[Цитировать]

Не в парнях счастье
Год выпуска: 2014
Производство: Кинокомпания Русское
Жанр: Мелодрама
Продолжительность: ~01:33:31
Субтитры: нет
Режиссёр: Кира Ангелина
В ролях: Любовь Баханкова, Марина Могилевская, Кирилл Плетнёв, Агата Муцениеце, Михаил Гаврилов (II)
Описание: Жизнь не балует Диану – вечные семейные ссоры, безденежье и однообразные студенческие будни. Но однажды в ее жизнь приходит чудо – она встречает Его. Сергей прекрасен, как герой ее снов, и девушка теряет голову от любви. Однако нежданное счастье внезапно обрывается: накануне свадьбы Диана застает любимого в объятиях лучшей подруги. Девушка в ужасе, она не знает, как простить предательство и как жить дальше. В этот переломный момент ей на помощь приходит мать Сергея, Елена – успешная, независимая бизнес-леди. Следуя ее наставлениям, героиня решает порвать с прошлыми наивными мечтами и стать расчетливой стервой, идущей к своей цели и ломающей все преграды на своем пути…


Качество: HDTV 1080i
Контейнер: TS
Видео: MPEG4 Video (H264) 1920x1080, ~ 7286 Кбит/сек, 25.00fps 0.141 bit/pixel
Аудио: MP2, 2 ch, 48,0 КГц, 256 Кбит/с
Сторонней рекламы нет!
MediaInfo
ОбщееИдентификатор : 1 (0x1)Полное имя : F:\Фильмы торренты\Ne.v.parnyah.schaste.2014.HDTV.(1080i).MediaClub.tsФормат : MPEG-TSРазмер файла : 5,19 ГбайтПродолжительность : 1 ч. 33 м.Режим общего битрейта : ПеременныйОбщий поток : 7937 Кбит/сек
ВидеоИдентификатор : 69 (0x45)Идентификатор меню : 1 (0x1)Формат : AVCФормат/Информация : Advanced Video CodecПрофиль формата : High@L4.0Параметр CABAC формата : ДаПараметр ReFrames формата : 4 кадраИдентификатор кодека : 27Продолжительность : 1 ч. 33 м.Битрейт : 7286 Кбит/секШирина : 1920 пикселейВысота : 1080 пикселейСоотношение сторон : 16:9Частота кадров : 25,000 кадров/секЦветовое пространство : YUVСубдискретизация насыщенности : 4:2:0Битовая глубина : 8 битТип развёртки : MBAFFБит/(Пиксели*Кадры) : 0.141Размер потока : 4,76 Гбайт (92%)
АудиоИдентификатор : 68 (0x44)Идентификатор меню : 1 (0x1)Формат : MPEG AudioВерсия формата : Version 1Профиль формата : Layer 2Идентификатор кодека : 3Продолжительность : 1 ч. 33 м.Вид битрейта : ПостоянныйБитрейт : 256 Кбит/секКаналы : 2 каналаЧастота : 48,0 КГцМетод сжатия : С потерямиРазмер потока : 171 Мбайт (3%)Язык : English
Раздача группы:
Отдельное спасибо nikolspup за предоставление материала.
Скриншот c названием фильма Скриншоты
Скачать

Скачать торрент!

Как скачивать? · Что такое торрент? · Рейтинг и ограничения

Сайт не распространяет и не хранит электронные версии произведений, а лишь предоставляет доступ к создаваемому пользователями каталогу ссылок на торрент-файлы, которые содержат только списки хеш-сумм

[Профиль] [ЛС]
Показать сообщения:    
Ответить на тему

Текущее время: Сегодня 07:51

Часовой пояс: GMT + 4



Вы не можете начинать темы
Вы не можете отвечать на сообщения
Вы не можете редактировать свои сообщения
Вы не можете удалять свои сообщения
Вы не можете голосовать в опросах
Вы не можете прикреплять файлы к сообщениям
Вы не можете скачивать файлы