Счастье надо беречь (Иосиф Шульман) [1958, Драма, DVDScreener]

Ответить на тему
 
Автор Сообщение

user ®

Стаж: 7 лет 7 месяцев

Сообщений: 20008

Пост Пост: #1 от 19-Сен-2014 15:40

[Цитировать]

Счастье надо беречь
Жанр: Драма
Год выпуска: 1958
Продолжительность: 01:23:11
Режиссёр: Иосиф Шульман

В ролях: Юрий Саранцев, Константин Скоробогатов, Данута Столярская, Виталий Полицеймако, Нина Дорошина, Борис Кудрявцев, Дзидра Ритенберга, Степан Хацкевич, Алексей Барановский, Галина Макарова, Владимир Иванов, Александра Климова, Кузьма Кулаков
Описание: Вернувшись в родное село по окончании срока воинской службы, Виктор (Юрий Саранцев) привел в дом невесту — и вскоре сыграли свадьбу. Виктор с большим энтузиазмом работает в колхозе, его назначают бригадиром, но счастье старого Данилы, отца Виктора, омрачает грязная сплетня — будто бы отцом Виктора является не он, а Шандыбович, неблаговидные дела которого были недавно разоблачены Виктором. Между отцом и сыном назревает разлад. Вначале отец, а затем и сын покидают дом. И только весть о будущем ребенке вновь соединяет семью.
Доп. информация: Релиз: , pmv
Сэмпл: http://multi-up.com/1000102
Качество видео: DVDScreener
Формат видео: AVI
Видео: 720x544 (1.32:1), 25 fps, XviD build 73 ~2294 kbps avg, 0.23 bit/pixel
Аудио: 48 kHz, MPEG Layer 3, 1 ch, ~128.00 kbps avg
MediaInfo
Format : AVI
Format/Info : Audio Video Interleave
File size : 1.41 GiB
Duration : 1h 23mn
Overall bit rate : 2 432 Kbps
Writing library : VirtualDub build 35560/release
Video
ID : 0
Format : MPEG-4 Visual
Format profile : Advanced Simple@L5
Format settings, BVOP : Yes
Format settings, QPel : No
Format settings, GMC : No warppoints
Format settings, Matrix : Default (H.263)
Codec ID : XVID
Codec ID/Hint : XviD
Duration : 1h 23mn
Bit rate : 2 295 Kbps
Width : 720 pixels
Height : 544 pixels
Display aspect ratio : 4:3
Frame rate : 25.000 fps
Color space : YUV
Chroma subsampling : 4:2:0
Bit depth : 8 bits
Scan type : Progressive
Bits/(Pixel*Frame) : 0.234
Stream size : 1.33 GiB (94%)
Writing library : XviD 73
Audio
ID : 1
Format : MPEG Audio
Format version : Version 1
Format profile : Layer 3
Codec ID : 55
Codec ID/Hint : MP3
Duration : 1h 23mn
Bit rate mode : Constant
Bit rate : 128 Kbps
Channel(s) : 1 channel
Sampling rate : 48.0 KHz
Stream size : 76.2 MiB (5%)
Alignment : Split accross interleaves
Interleave, duration : 40 ms (1.00 video frame)
Interleave, preload duration : 500 ms
Скриншот c названием фильма Скриншоты
Скачать

Скачать торрент!

Как скачивать? · Что такое торрент? · Рейтинг и ограничения

Сайт не распространяет и не хранит электронные версии произведений, а лишь предоставляет доступ к создаваемому пользователями каталогу ссылок на торрент-файлы, которые содержат только списки хеш-сумм

[Профиль] [ЛС]
Показать сообщения:    
Ответить на тему

Текущее время: Сегодня 12:56

Часовой пояс: GMT + 4



Вы не можете начинать темы
Вы не можете отвечать на сообщения
Вы не можете редактировать свои сообщения
Вы не можете удалять свои сообщения
Вы не можете голосовать в опросах
Вы не можете прикреплять файлы к сообщениям
Вы не можете скачивать файлы