Два лика января / The Two Faces of January (Хуссейн Амини / Hossein Amini) [2014, Великобритания, США, Франция, триллер, BDRip] MVO

Ответить на тему
 
Автор Сообщение

user ®

Стаж: 7 лет 7 месяцев

Сообщений: 20008

Пост Пост: #1 от 19-Сен-2014 15:40

[Цитировать]

Два лика января / The Two Faces of January- Год выпуска: 2014
Жанр: триллер
Страна: Великобритания, США, Франция / StudioCanal, Timnick Films
Продолжительность: 01:36:37
Перевод: Любительский (многоголосый, закадровый) "Paradox"
Субтитры: нет-Режиссёр: Хуссейн Амини / Hossein Amini-В ролях: Кирстен Данст, Вигго Мортенсен, Оскар Айзек, Дэйзи Беван, Дэвид Уоршофски, Промитеас Алиферопулос, Иигит Озшенер, Никос Мавракис, Сократ Алафоуцос, Озан Тас, Евгения Димитропулу, Джеймс Собол Келли, Озджан Оздемир, Омирос Пулакис, Окан Авджи, Мехмет Эсен, Пабло Вердехо, Коста Кортидис, Питер Мэир, Брайан Ниблетт-Описание: Начало 60-х 20-го века. В Афины приезжает блестящая гламурная пара — харизматичный Честер МакФарланд и его молодая жена Колетта. Во время осмотра Акрополя они знакомятся с юным американским гидом Райдалом. Паре есть что скрывать, когда они видятся снова, Честер просит Райдола помочь избавиться от трупа незнакомца, который якобы напал на него.- -Сэмпл: http://multi-up.com/999985-Качество: BDRip [исх. BDRemux / 1080p / rutor]
Формат: AVI
Видео: 720x304 (2.37:1), 23.976 fps, XviD build 73 ~1721 kbps avg, 0.33 bit/pixel
Аудио: 48 kHz, AC3 Dolby Digital, 3/2 (L,C,R,l,r) + LFE ch, ~384.00 kbps avg
-Media Info
Формат                                   : AVI
Формат/Информация                        : Audio Video Interleave
Размер файла                             : 1,43 Гбайт
Продолжительность                        : 1 ч. 36 м.
Общий поток                              : 2114 Кбит/сек
Программа кодирования                    : VirtualDubMod 1.5.10.3 | www.virtualdub-fr.org || (build 2550/release)
Библиотека кодирования                   : VirtualDubMod build 2550/release
Видео
Идентификатор                            : 0
Формат                                   : MPEG-4 Visual
Профиль формата                          : Advanced Simple@L5
Параметр BVOP формата                    : 1
Параметр QPel формата                    : Нет
Параметр GMC формата                     : Без точки перехода
Параметр матрицы формата                 : Выборочная
Идентификатор кодека                     : XVID
Идентификатор кодека/Подсказка           : XviD
Продолжительность                        : 1 ч. 36 м.
Битрейт                                  : 1721 Кбит/сек
Ширина                                   : 720 пикселей
Высота                                   : 304 пикселя
Соотношение сторон                       : 2,35:1
Частота кадров                           : 23,976 кадра/сек
Цветовое пространство                    : YUV
Субдискретизация насыщенности            : 4:2:0
Битовая глубина                          : 8 бит
Тип развёртки                            : Прогрессивная
Метод сжатия                             : С потерями
Бит/(Пиксели*Кадры)                      : 0.328
Размер потока                            : 1,16 Гбайт (81%)
Библиотека кодирования                   : XviD 73
Аудио
Идентификатор                            : 1
Формат                                   : AC-3
Формат/Информация                        : Audio Coding 3
Расширение режима                        : CM (complete main)
Параметр Endianness формата              : Big
Идентификатор кодека                     : 2000
Продолжительность                        : 1 ч. 36 м.
Вид битрейта                             : Постоянный
Битрейт                                  : 384 Кбит/сек
Каналы                                   : 6 каналов
Расположение каналов                     : Front: L C R, Side: L R, LFE
Частота                                  : 48,0 КГц
Битовая глубина                          : 16 бит
Метод сжатия                             : С потерями
Размер потока                            : 265 Мбайт (18%)
Выравнивание                             : Разделение по промежуткам
Продолжительность промежутка             : 42  мс. (1,00 видеокадр)
Время предзагрузки промежутка            : 500  мс.
Скриншоты
Скачать

Скачать торрент!

Как скачивать? · Что такое торрент? · Рейтинг и ограничения

Сайт не распространяет и не хранит электронные версии произведений, а лишь предоставляет доступ к создаваемому пользователями каталогу ссылок на торрент-файлы, которые содержат только списки хеш-сумм

[Профиль] [ЛС]
Показать сообщения:    
Ответить на тему

Текущее время: Сегодня 08:26

Часовой пояс: GMT + 4



Вы не можете начинать темы
Вы не можете отвечать на сообщения
Вы не можете редактировать свои сообщения
Вы не можете удалять свои сообщения
Вы не можете голосовать в опросах
Вы не можете прикреплять файлы к сообщениям
Вы не можете скачивать файлы