Виноваты звезды / The Fault in Our Stars (Джош Бун / Josh Boone) [2014, США, драма, мелодрама, BDRip 1080p] [Extended Cut] Dub + Ukr + VO (Матвеев) + Sub (Rus, Ukr, Eng) + Original (Eng) + Comm

Ответить на тему
 
Автор Сообщение

user ®

Стаж: 7 лет 7 месяцев

Сообщений: 20008

Пост Пост: #1 от 18-Сен-2014 21:55

[Цитировать]

Виноваты звезды / The Fault in Our Stars / Extended Cut
Страна: США
Студия: Temple Hill Entertainment
Жанр: драма, мелодрама
Год выпуска: 2014
Продолжительность: 02:12:53
Перевод 1: Профессиональный (дублированный) - Blu-ray EUR
Перевод 2: Одноголосый закадровый - А. Матвеев
Cубтитры: Russian (Full), Russian (А. Матвеев), Ukrainian, English, English (SDH)
Оригинальная аудиодорожка: английский
Режиссер: Джош Бун / Josh Boone
В ролях: Шейлин Вудли, Энсел Элгорт, Нат Вулф, Лора Дерн, Сэм Трэммелл, Уиллем Дефо, Лотте Вербеек, Ана Дела Крус, Рэнди Ковиц, Тони Саладна
Описание: Хэйзел больна раком. Несмотря на то, что болезнь временно отступила, девушка не чувствует ни капли радости. Она ходит в группу поддержки, где однажды знакомится с Огастусом Уотерсом и моментально влюбляется в него. Огастус и Хэйзел отправляются в полное страсти и жизни путешествие, которое лишний раз покажет им, что весь смысл жизни можно найти в любом ее отрезке.
Релиз: by madoff
Рип от VietHD
Сэмпл: http://multi-up.com/999760
Тип релиза: BDRip 1080p
Контейнер: MKV
Видео: AVC, 1920x1038 (1.850), 23.976 fps, 15.9 Mbps (0.334 bit/pixel)
Аудио 1: Russian: 48 kHz/24-bit, DTS, 3/2 (L,C,R,l,r) + LFE ch, ~768.00 kbps avg |Дубляж, Blu-ray EUR|
Аудио 2: Russian: 48 kHz/24-bit, DTS, 3/2 (L,C,R,l,r) + LFE ch, ~1509.00 kbps avg |Одноголосый закадровый, А. Матвеев|
Аудио 3: Ukrainian: 48 kHz, AC3, 3/2 (L,C,R,l,r) + LFE ch, ~448.00 kbps avg |Дубляж, Blu-ray EUR|
Аудио 4: English: 48 kHz/24-bit, DTS, 3/2 (L,C,R,l,r) + LFE ch, ~1509.00 kbps avg
Аудио 5: English:48 kHz, AC3, 2/0 (L,R), ~224.00 kbps avg |Commentary|
Главы: есть

MediaInfo
General
Unique ID : 207918928691491521285284850689372652028 (0x9C6BBAA4CD6D3CCA8B5FC102CB0901FC)
Complete name : D:\Видео\Movies\The.Fault.in.Our.Stars.2014.Extended.1080p.BluRay.2xRus.Ukr.2xEng.HDCLUB.mkv
Format : Matroska
Format version : Version 2
File size : 19.3 GiB
Duration : 2h 12mn
Overall bit rate : 20.8 Mbps
Movie name : The Fault in Our Stars (2014 ) - Release for HDCLUB
Encoded date : UTC 2014-09-16 22:07:33
Writing application : mkvmerge v5.7.0 ('The Whirlwind') built on Jul 8 2012 20:08:51
Writing library : libebml v1.2.3 + libmatroska v1.3.0
Video
ID : 1
Format : AVC
Format/Info : Advanced Video Codec
Format profile : High@L4.1
Format settings, CABAC : Yes
Format settings, ReFrames : 4 frames
Codec ID : V_MPEG4/ISO/AVC
Duration : 2h 12mn
Bit rate : 15.9 Mbps
Width : 1 920 pixels
Height : 1 038 pixels
Display aspect ratio : 1.85:1
Frame rate mode : Constant
Frame rate : 23.976 fps
Color space : YUV
Chroma subsampling : 4:2:0
Bit depth : 8 bits
Scan type : Progressive
Bits/(Pixel*Frame) : 0.333
Stream size : 14.7 GiB (77%)
Writing library : x264 core 142 r2453kMod ea0ca51
Encoding settings : cabac=1 / ref=4 / deblock=1:-3:-3 / analyse=0x3:0x133 / me=umh / subme=10 / psy=1 / fade_compensate=0.00 / psy_rd=1.05:0.00 / mixed_ref=1 / me_range=24 / chroma_me=1 / trellis=2 / 8x8dct=1 / cqm=0 / deadzone=21,11 / fast_pskip=0 / chroma_qp_offset=-2 / threads=12 / lookahead_threads=3 / sliced_threads=0 / nr=0 / decimate=0 / interlaced=0 / bluray_compat=0 / constrained_intra=0 / fgo=0 / bframes=10 / b_pyramid=2 / b_adapt=2 / b_bias=0 / direct=3 / weightb=1 / open_gop=0 / weightp=2 / keyint=250 / keyint_min=23 / scenecut=40 / intra_refresh=0 / rc_lookahead=60 / rc=crf / mbtree=0 / crf=16.8000 / qcomp=0.65 / qpmin=0 / qpmax=69 / qpstep=4 / vbv_maxrate=50000 / vbv_bufsize=62500 / crf_max=0.0 / nal_hrd=none / filler=0 / ip_ratio=1.20 / pb_ratio=1.20 / aq=3:0.80
Language : English
Default : Yes
Forced : No
Audio #1
ID : 2
Format : DTS
Format/Info : Digital Theater Systems
Mode : 16
Format settings, Endianness : Big
Codec ID : A_DTS
Duration : 2h 12mn
Bit rate mode : Constant
Bit rate : 768 Kbps
Channel count : 6 channels
Channel positions : Front: L C R, Side: L R, LFE
Sampling rate : 48.0 KHz
Bit depth : 24 bits
Compression mode : Lossy
Stream size : 730 MiB (4%)
Title : |Дубляж, Blu-ray CEE|
Language : Russian
Default : Yes
Forced : No
Audio #2
ID : 3
Format : DTS
Format/Info : Digital Theater Systems
Mode : 16
Format settings, Endianness : Big
Codec ID : A_DTS
Duration : 2h 12mn
Bit rate mode : Constant
Bit rate : 1 509 Kbps
Channel count : 6 channels
Channel positions : Front: L C R, Side: L R, LFE
Sampling rate : 48.0 KHz
Bit depth : 24 bits
Compression mode : Lossy
Stream size : 1.40 GiB (7%)
Title : |Авторский А. Матвеев|
Language : Russian
Default : No
Forced : No
Audio #3
ID : 4
Format : AC-3
Format/Info : Audio Coding 3
Mode extension : CM (complete main)
Format settings, Endianness : Big
Codec ID : A_AC3
Duration : 2h 12mn
Bit rate mode : Constant
Bit rate : 448 Kbps
Channel count : 6 channels
Channel positions : Front: L C R, Side: L R, LFE
Sampling rate : 48.0 KHz
Bit depth : 16 bits
Compression mode : Lossy
Stream size : 426 MiB (2%)
Title : |Дубляж, Blu-ray CEE|
Language : Ukrainian
Default : No
Forced : No
Audio #4
ID : 5
Format : DTS
Format/Info : Digital Theater Systems
Mode : 16
Format settings, Endianness : Big
Codec ID : A_DTS
Duration : 2h 12mn
Bit rate mode : Constant
Bit rate : 1 509 Kbps
Channel count : 6 channels
Channel positions : Front: L C R, Side: L R, LFE
Sampling rate : 48.0 KHz
Bit depth : 24 bits
Compression mode : Lossy
Stream size : 1.40 GiB (7%)
Language : English
Default : No
Forced : No
Audio #5
ID : 6
Format : AC-3
Format/Info : Audio Coding 3
Mode extension : CM (complete main)
Format settings, Endianness : Big
Codec ID : A_AC3
Duration : 2h 12mn
Bit rate mode : Constant
Bit rate : 224 Kbps
Channel count : 2 channels
Channel positions : Front: L R
Sampling rate : 48.0 KHz
Bit depth : 16 bits
Compression mode : Lossy
Stream size : 213 MiB (1%)
Title : Commentary
Language : English
Default : No
Forced : No
Text #1
ID : 7
Format : UTF-8
Codec ID : S_TEXT/UTF8
Codec ID/Info : UTF-8 Plain Text
Title : Full
Language : Russian
Default : No
Forced : No
Text #2
ID : 8
Format : UTF-8
Codec ID : S_TEXT/UTF8
Codec ID/Info : UTF-8 Plain Text
Title : А. Матвеев
Language : Russian
Default : No
Forced : No
Text #3
ID : 9
Format : UTF-8
Codec ID : S_TEXT/UTF8
Codec ID/Info : UTF-8 Plain Text
Title : Full
Language : Ukrainian
Default : No
Forced : No
Text #4
ID : 10
Format : UTF-8
Codec ID : S_TEXT/UTF8
Codec ID/Info : UTF-8 Plain Text
Language : English
Default : No
Forced : No
Text #5
ID : 11
Format : UTF-8
Codec ID : S_TEXT/UTF8
Codec ID/Info : UTF-8 Plain Text
Title : SDH
Language : English
Default : No
Forced : No
Menu
00:00:00.000 : en:Chapter 01
00:02:34.529 : en:Chapter 02
00:06:25.594 : en:Chapter 03
00:13:01.906 : en:Chapter 04
00:15:07.615 : en:Chapter 05
00:18:12.591 : en:Chapter 06
00:21:05.681 : en:Chapter 07
00:24:59.790 : en:Chapter 08
00:28:35.380 : en:Chapter 09
00:31:30.806 : en:Chapter 10
00:38:12.874 : en:Chapter 11
00:41:51.217 : en:Chapter 12
00:49:19.832 : en:Chapter 13
00:56:41.606 : en:Chapter 14
01:02:27.327 : en:Chapter 15
01:05:40.979 : en:Chapter 16
01:08:17.427 : en:Chapter 17
01:14:57.743 : en:Chapter 18
01:20:58.479 : en:Chapter 19
01:25:30.333 : en:Chapter 20
01:29:04.339 : en:Chapter 21
01:34:50.476 : en:Chapter 22
01:43:59.024 : en:Chapter 23
01:46:27.089 : en:Chapter 24
01:52:18.482 : en:Chapter 25
01:57:25.455 : en:Chapter 26
02:01:09.304 : en:Chapter 27
02:06:16.402 : en:Chapter 28
Скриншоты
Скачать

Скачать торрент!

Как скачивать? · Что такое торрент? · Рейтинг и ограничения

Сайт не распространяет и не хранит электронные версии произведений, а лишь предоставляет доступ к создаваемому пользователями каталогу ссылок на торрент-файлы, которые содержат только списки хеш-сумм

[Профиль] [ЛС]
Показать сообщения:    
Ответить на тему

Текущее время: Сегодня 23:44

Часовой пояс: GMT + 4



Вы не можете начинать темы
Вы не можете отвечать на сообщения
Вы не можете редактировать свои сообщения
Вы не можете удалять свои сообщения
Вы не можете голосовать в опросах
Вы не можете прикреплять файлы к сообщениям
Вы не можете скачивать файлы