Окровавленное копьё на горе Фудзи / Chiyari Fuji (Тому Утида / Tomu Uchida) [1955, Япония, дзидай-гэки, самурайская драма, DVDRip] VO (Andi) + Sub Rus

Ответить на тему
 
Автор Сообщение

user ®

Стаж: 13 лет

Сообщений: 15071

Пост Пост: #1 от 18-Сен-2014 10:35

[Цитировать]

Окровавленное копьё на горе Фудзи / Chiyari Fuji
Страна: Япония
Жанр: дзидай-гэки, самурайская драма
Год выпуска: 1955
Продолжительность: 01:30:18
Перевод: Одноголосый закадровый Andi
Cубтитры: русские
Оригинальная аудиодорожка: нет
Режиссер: Тому Утида / Tomu Uchida
В ролях: Chiezo Kataoka, Ryunosuke Tsukigata, Чизуру Китагава, Юрико Таширо, Дайскэ Като, Эйтаро Синдо, Тораноскэ Огава, Kyoji Sugi, Йошио Йошида
Описание: Молодой самурай, вместе с двумя своими слугами, совершает путешествие в Эдо. Длинная дорога, череда проносящихся образов - бездомный мальчик-сирота, странствующая танцовщица с дочерью, старик, собирающийся продать свою дочь, вор, орудующий на дороге, инспектор, разыскивющий его - хорошо прописанные, достоверные характеры, жизненные ситуации, полные чувства, временами печальные, временами смешные. Венчает все великолепный, полный драматизма и эмоционального накала, жестокий финал. Очень убедительная картина.
Сэмпл: http://multi-up.com/999815
Качество видео: DVDRip
Формат видео: AVI
Видео: 512x384, 25 fps, 942 kbps, 0.19 b/p
Аудио: 48000 Hz, 2-channel, 192 kbps
MediaInfo
General
Complete name : L:\VO Andi\Chiyari_Fuji_[VO Andi]\Chiyari_Fuji_[***].avi
Format : AVI
Format/Info : Audio Video Interleave
File size : 739 MiB
Duration : 1h 30mn
Overall bit rate : 1 145 Kbps
Movie name : Chiyari Fuji 1955
Director : Petey [***] *All Films*
Genre : Drama
Writing application : VirtualDubMod 1.5.10.2 (build 2540/release)
Writing library : VirtualDubMod build 2540/release
Original source form/Name : Movie
Video
ID : 0
Format : MPEG-4 Visual
Format profile : Advanced Simple@L5
Format settings, BVOP : 1
Format settings, QPel : No
Format settings, GMC : No warppoints
Format settings, Matrix : Custom
Codec ID : XVID
Codec ID/Hint : XviD
Duration : 1h 30mn
Bit rate : 943 Kbps
Width : 512 pixels
Height : 384 pixels
Display aspect ratio : 4:3
Frame rate : 25.000 fps
Color space : YUV
Chroma subsampling : 4:2:0
Bit depth : 8 bits
Scan type : Progressive
Compression mode : Lossy
Bits/(Pixel*Frame) : 0.192
Stream size : 609 MiB (82%)
Writing library : XviD 1.2.1 (UTC 2008-12-04)
Audio
ID : 1
Format : AC-3
Format/Info : Audio Coding 3
Mode extension : CM (complete main)
Format settings, Endianness : Big
Codec ID : 2000
Duration : 1h 30mn
Bit rate mode : Constant
Bit rate : 192 Kbps
Channel count : 2 channels
Channel positions : Front: L R
Sampling rate : 48.0 KHz
Bit depth : 16 bits
Compression mode : Lossy
Stream size : 124 MiB (17%)
Alignment : Split accross interleaves
Interleave, duration : 40 ms (1.00 video frame)
Interleave, preload duration : 500 ms
Скриншот c названием фильма Скриншоты
Скачать

Скачать торрент! Окровавленное копьё на горе Фудзи / Chiyari Fuji (Тому Утида / Tomu Uchida) [1955, Япония, дзидай-гэки, самурайская драма, DVDRip] VO (Andi) + Sub Rus

Как скачивать? · Что такое торрент? · Рейтинг и ограничения

Сайт не распространяет и не хранит электронные версии произведений, а лишь предоставляет доступ к создаваемому пользователями каталогу ссылок на торрент-файлы, которые содержат только списки хеш-сумм

[Профиль] [ЛС]
Показать сообщения:    
Ответить на тему

Текущее время: Сегодня 15:48

Часовой пояс: GMT + 4



Вы не можете начинать темы
Вы не можете отвечать на сообщения
Вы не можете редактировать свои сообщения
Вы не можете удалять свои сообщения
Вы не можете голосовать в опросах
Вы не можете прикреплять файлы к сообщениям
Вы не можете скачивать файлы