Вот это любовь! (Станислав Назиров) [2013, Беларусь, Россия, Комедия, мелодрама, HDTV 1080i]

Ответить на тему
 
Автор Сообщение

user ®

Стаж: 7 лет 7 месяцев

Сообщений: 20008

Пост Пост: #1 от 18-Сен-2014 04:15

[Цитировать]

Вот это любовь! «Догони его, если сможешь!»
Год выпуска: 2013
Производство: Беларусь, Россия, ФМГ Продакшн Технолоджи
Жанр: Комедия, мелодрама
Продолжительность: ~01:29:00
Субтитры: нет
Режиссёр: Станислав Назиров
В ролях: Вера Баханкова, Сергей Годин, Анна Антонова, Евгений Косырев, Владимир Епифанцев, Константин Крюков, Валерий Баринов, Елена Валюшкина, Ёлка, Кирилл Ситников...
Описание: Сюжет фильма рассказывает о незабываемых приключениях двух молодых москвичек. Заурядная деловая поездка становится захватывающей погоней, наполненной отличным настроением, неожиданными событиями, искрометным юмором и, конечно же, морем чувств и ярких эмоций!


Качество: HDTV 1080i
Контейнер: TS
Видео: MPEG4 Video (H264) 1920x1080, ~ 12,3 Мбит/сек, 25.00fps 0.238 bit/pixel
Аудио: AC-3, 6 канала, 48,0 КГц, ~448 kbps
Сторонней рекламы нет!
MediaInfo
ОбщееИдентификатор : 1 (0x1)Полное имя : F:\Вот это любовь! 2013_HDTV_1080i.tsФормат : MPEG-TSРазмер файла : 8,37 ГбайтПродолжительность : 1 ч. 29 м.Общий поток : 13,4 Мбит/сек
ВидеоИдентификатор : 3551 (0xDDF)Идентификатор меню : 1 (0x1)Формат : AVCФормат/Информация : Advanced Video CodecПрофиль формата : Main@L4.0Параметр CABAC формата : ДаПараметр ReFrames формата : 3 кадраПараметры GOP формата : M=1, N=12Идентификатор кодека : 27Продолжительность : 1 ч. 29 м.Битрейт : 12,3 Мбит/секШирина : 1920 пикс.Высота : 1080 пикс.Соотношение сторон : 16:9Частота кадров : 25,000 кадр/секСтандарт вещания : ComponentЦветовое пространство : YUVПодвыборка цветности : 4:2:0Битовая глубина : 8 битТип развёртки : ЧересстрочнаяПорядок развёртки : Верхнее поле первоеБит/(Пиксели*Кадры) : 0.238Размер потока : 7,67 Гбайт (92%)Основные цвета : BT.709-5, BT.1361, IEC 61966-2-4, SMPTE RP177Характеристики трансфера : BT.709-5, BT.1361Коэффициенты матрицы : BT.709-5, BT.1361, IEC 61966-2-4 709, SMPTE RP177
АудиоИдентификатор : 3553 (0xDE1)Идентификатор меню : 1 (0x1)Формат : AC-3Формат/Информация : Audio Coding 3Расширение режима : CM (complete main)Идентификатор кодека : 6Продолжительность : 1 ч. 29 м.Вид битрейта : ПостоянныйБитрейт : 448 Кбит/секКаналы : 6 каналовРасположение каналов : Front: L C R, Side: L R, LFEЧастота : 48,0 КГцБитовая глубина : 16 битМетод сжатия : С потерямиРазмер потока : 286 Мбайт (3%)Язык : Russian
Раздача группы:
Отдельное спасибо nikolspup за предоставление материала.
Скриншот c названием фильма Скриншоты
Скачать

Скачать торрент!

Как скачивать? · Что такое торрент? · Рейтинг и ограничения

Сайт не распространяет и не хранит электронные версии произведений, а лишь предоставляет доступ к создаваемому пользователями каталогу ссылок на торрент-файлы, которые содержат только списки хеш-сумм

[Профиль] [ЛС]

Роман1807

Стаж: 2 года 7 месяцев

Сообщений: 2

Пост Пост: #2 от 18-Сен-2014 09:09 (спустя 4 часа)

[Цитировать]

как качество?
[Профиль] [ЛС]
Показать сообщения:    
Ответить на тему

Текущее время: Сегодня 20:09

Часовой пояс: GMT + 4



Вы не можете начинать темы
Вы не можете отвечать на сообщения
Вы не можете редактировать свои сообщения
Вы не можете удалять свои сообщения
Вы не можете голосовать в опросах
Вы не можете прикреплять файлы к сообщениям
Вы не можете скачивать файлы