Иногда они возвращаются / Sometimes They Come Back (Том Маклафлин / Tom McLoughlin) [1991, США, ужасы, фэнтези, триллер, драма, BDRip 720p] DVO (НТВ+) + Sub Eng + Original Eng

Ответить на тему
 
Автор Сообщение

user ®

Стаж: 7 лет 7 месяцев

Сообщений: 20008

Пост Пост: #1 от 18-Сен-2014 04:15

[Цитировать]

Иногда они возвращаются / Sometimes They Come Back
Страна: США
Жанр: ужасы, фэнтези, триллер, драма
Год выпуска: 1991
Продолжительность: 01:38:06
-
Перевод: Профессиональный (двухголосый закадровый) НТВ+
Cубтитры: английские
Оригинальная аудиодорожка: английский
-
Режиссер: Том Маклафлин / Tom McLoughlin
В ролях: Тим Мэтисон, Брук Эдамс, Роберт Раслер, Крис Деметрал, Роберт Хай Гормен, Уильям Сэндерсон, Николас Сэдлер, Бентли Митчэм, Мэтт Нолан, Тасиа Валенза
-
Описание: Зрелый мужчина приезжает вместе с семьей (женой и сыном) в город, где прошло его детство. В детстве он стал свидетелем убийства своего брата, и того, что поезд раздавил убийц брата. С появлением героя в городе, появляются и трое убийц брата…
-

-
Сэмпл: https://www.sendspace.com/file/memqmt
-
Тип релиза: BDRip 720p
Контейнер: MKV
Видео: 1280x720p (16:9), 23.976 fps, 4 867 Kbps
Аудио 1: русский / AC3 / 2.0 / 48 kHz / 192 kbps / 16 bit || RUS
Аудио 2: английский / DTS / 2.0 / 48 kHz / 1509 kbps / 16 bit || ENG
Формат субтитров: softsub (SRT)
Главы: есть
Доп. информация
Сцен-рип от VETO, добавлена двухголоска отсюда [url=http://***/forum/viewtopic.php?t=4146354]http://***/forum/viewtopic.php?t=4146354[/url], многоголоску от Викинг-видео не стал добавлять т.к. с эхом и насколько я понял от порезанной версии - в этой теме про это пишут [url=http://***/forum/viewtopic.php?t=1444714]http://***/forum/viewtopic.php?t=1444714[/url] (разница почти в минуту) нашел уже подогнанную дорожку, но она оказалась с плавающим рассинхроном и с эхом, вот пример https://www.sendspace.com/file/e1evnp Ставьте временно - из-за низкого битрейта видео. Всем спасибо.
MediaInfo
General
Unique ID : 191098727846876166460224078872748768210 (0x8FC446B6F9535AD3B3D84114AB4C3BD2)
Complete name : C:\Users\ALEX\Downloads\Фильмы\HD\Sometimes They Come Back.1991.BDRip.720p.Rus.Eng.Sub.Chpt.mkv
Format : Matroska
Format version : Version 4 / Version 2
File size : 4.50 GiB
Duration : 1h 38mn
Overall bit rate : 6 568 Kbps
Encoded date : UTC 2014-09-13 11:23:45
Writing application : mkvmerge v6.6.0 ('The Edge Of The In Between') built on Dec 1 2013 17:55:00
Writing library : libebml v1.3.0 + libmatroska v1.4.1
Video
ID : 1
Format : AVC
Format/Info : Advanced Video Codec
Format profile : High@L4.1
Format settings, CABAC : Yes
Format settings, ReFrames : 5 frames
Codec ID : V_MPEG4/ISO/AVC
Duration : 1h 38mn
Bit rate : 4 867 Kbps
Width : 1 280 pixels
Height : 720 pixels
Display aspect ratio : 16:9
Frame rate mode : Constant
Frame rate : 23.976 fps
Color space : YUV
Chroma subsampling : 4:2:0
Bit depth : 8 bits
Scan type : Progressive
Bits/(Pixel*Frame) : 0.220
Stream size : 3.25 GiB (72%)
Title : VETO
Writing library : x264 core 140 r2377 1ca7bb9
Encoding settings : cabac=1 / ref=5 / deblock=1:-3:-3 / analyse=0x3:0x133 / me=umh / subme=8 / psy=1 / psy_rd=1.00:0.15 / mixed_ref=1 / me_range=16 / chroma_me=1 / trellis=1 / 8x8dct=1 / cqm=0 / deadzone=21,11 / fast_pskip=0 / chroma_qp_offset=-4 / threads=12 / lookahead_threads=2 / sliced_threads=0 / nr=0 / decimate=1 / interlaced=0 / bluray_compat=0 / constrained_intra=0 / bframes=3 / b_pyramid=2 / b_adapt=2 / b_bias=0 / direct=3 / weightb=1 / open_gop=0 / weightp=2 / keyint=230 / keyint_min=22 / scenecut=40 / intra_refresh=0 / rc_lookahead=50 / rc=2pass / mbtree=1 / bitrate=4867 / ratetol=1.0 / qcomp=0.60 / qpmin=10 / qpmax=69 / qpstep=4 / cplxblur=20.0 / qblur=0.5 / ip_ratio=1.40 / aq=1:1.00
Language : German
Default : Yes
Forced : No
Audio #1
ID : 2
Format : AC-3
Format/Info : Audio Coding 3
Mode extension : CM (complete main)
Format settings, Endianness : Big
Codec ID : A_AC3
Duration : 1h 38mn
Bit rate mode : Constant
Bit rate : 192 Kbps
Channel(s) : 2 channels
Channel positions : Front: L R
Sampling rate : 48.0 KHz
Bit depth : 16 bits
Compression mode : Lossy
Stream size : 135 MiB (3%)
Title : DVO (НТВ+)
Language : Russian
Default : Yes
Forced : No
Audio #2
ID : 3
Format : DTS
Format/Info : Digital Theater Systems
Mode : 16
Format settings, Endianness : Big
Codec ID : A_DTS
Duration : 1h 38mn
Bit rate mode : Constant
Bit rate : 1 509 Kbps
Channel(s) : 2 channels
Channel positions : Front: L R
Sampling rate : 48.0 KHz
Bit depth : 16 bits
Compression mode : Lossy
Stream size : 1.03 GiB (23%)
Title : Original
Language : English
Default : No
Forced : No
Text
ID : 4
Format : UTF-8
Codec ID : S_TEXT/UTF8
Codec ID/Info : UTF-8 Plain Text
Title : Full
Language : English
Default : No
Forced : No
Menu
00:00:00.000 : en:00:00:00.000
00:04:57.797 : en:00:04:57.797
00:11:01.619 : en:00:11:01.619
00:20:49.581 : en:00:20:49.581
00:26:45.770 : en:00:26:45.770
00:32:48.091 : en:00:32:48.091
00:39:05.176 : en:00:39:05.176
00:46:46.094 : en:00:46:46.094
00:50:32.779 : en:00:50:32.779
00:54:19.047 : en:00:54:19.047
00:58:04.564 : en:00:58:04.564
01:02:37.754 : en:01:02:37.754
01:06:46.752 : en:01:06:46.752
01:15:32.194 : en:01:15:32.194
01:24:54.297 : en:01:24:54.297
01:35:01.904 : en:01:35:01.904
Скриншоты
Скачать

Скачать торрент!

Как скачивать? · Что такое торрент? · Рейтинг и ограничения

Сайт не распространяет и не хранит электронные версии произведений, а лишь предоставляет доступ к создаваемому пользователями каталогу ссылок на торрент-файлы, которые содержат только списки хеш-сумм

[Профиль] [ЛС]
Показать сообщения:    
Ответить на тему

Текущее время: Сегодня 16:17

Часовой пояс: GMT + 4



Вы не можете начинать темы
Вы не можете отвечать на сообщения
Вы не можете редактировать свои сообщения
Вы не можете удалять свои сообщения
Вы не можете голосовать в опросах
Вы не можете прикреплять файлы к сообщениям
Вы не можете скачивать файлы