Таинственный лес / The Village (М. Найт Шьямалан / M. Night Shyamalan) [2004, США, триллер, мелодрама, HDTV 1080i] Dub + 2х MVO + DVO (Tycoon-studio) + AVO (Рудой) + Sub Rus, Eng + Original Eng

Ответить на тему
 
Автор Сообщение

user ®

Стаж: 7 лет 7 месяцев

Сообщений: 20008

Пост Пост: #1 от 18-Сен-2014 04:15

[Цитировать]

Таинственный лес / The Village- Страна: США
Студия: Touchstone Pictures
Жанр: триллер, мелодрама
Год выпуска: 2004
Продолжительность: 01:47:51
Перевод: Профессиональный (дублированный)
Перевод 2: Профессиональный (многоголосый закадровый)
Перевод 3: Профессиональный (многоголосый закадровый) trans-mg
Перевод 4: Профессиональный (двухголосый, закадровый) Tycoon-studio
Перевод 5: Авторский (одноголосый закадровый) Евгений Рудой
Cубтитры: русские, английские
Оригинальная аудиодорожка: английский
Режиссер: М. Найт Шьямалан / M. Night Shyamalan
В ролях: Сигурни Уивер /Sigourney Weaver/, Эдриэн Броуди /Adrien Brody/, Хоакин Феникс /Joaquin Phoenix/, Брендан Глисон /Brendan Gleeson/, Черри Джоунс /Cherry Jones/, Селия Уэстон /Celia Weston/
Описание: Пенсильвания. Жители деревни Ковингтон верят, что в местном лесу обитают мифические существа, и никогда не входят в лес и не покидают своей деревни.
Но однажды любознательный и своевольный Люций Хант, уставший жить в полной изоляции от внешнего мира, решает нарушить табу и выходит за пределы деревни…
Сэмпл: http://multi-up.com/999594
Тип релиза: HDTV 1080i
Контейнер: MKV
Видео кодек: MPEG2
Аудио кодек: AC-3
Видео: 1920x1080 (16:9); 16.9 Mbps; 29,976 fps
Аудио 1: Russian; AC3; 48 kHz, 384 Kbps; CBR; 6 ch |Dub|
Аудио 2: Russian; AC3; 48 kHz, 192 Kbps; CBR; 2 ch |MVO| tv?
Аудио 3: Russian; AC3; 48 kHz, 448 Kbps; CBR; 6 ch |MVO| trans-mg
Аудио 4: Russian; AC3; 48 kHz, 448 Kbps; CBR; 6 ch |DVO| Tycoon-studio
Аудио 5: Russian; AC3; 48 kHz, 448 Kbps; CBR; 6 ch |AVO| Евгений Рудой
Аудио 6: English; AC3; 48 kHz, 448 Kbps; CBR; 6 ch |Оригинальная дорожка|
MediaInfo
General
Unique ID : 215109233119265125507818672520518102973 (0xA1D48805C1FDC129BD20D3EDDD06EFBD)
Format : Matroska
Format version : Version 4 / Version 2
File size : 14.9 GiB
Duration : 1h 47mn
Overall bit rate mode : Variable
Overall bit rate : 19.7 Mbps
Encoded date : UTC 2013-03-24 10:35:47
Writing application : mkvmerge v6.0.0 ('Coming Up For Air') built on Jan 20 2013 09:52:00
Writing library : libebml v1.3.0 + libmatroska v1.4.0
Video #1
ID : 1
Format : MPEG Video
Format version : Version 2
Format profile : Main@High
Format settings, BVOP : Yes
Format settings, Matrix : Custom
Codec ID : V_MPEG2
Codec ID/Info : MPEG 1 or 2 Video
Duration : 1h 47mn
Bit rate mode : Variable
Bit rate : 17.0 Mbps
Maximum bit rate : 80.0 Mbps
Width : 1 920 pixels
Height : 1 080 pixels
Display aspect ratio : 16:9
Frame rate : 29.970 fps
Color space : YUV
Chroma subsampling : 4:2:0
Bit depth : 8 bits
Scan type : Interlaced
Scan order : Top Field First
Compression mode : Lossy
Bits/(Pixel*Frame) : 0.273
Stream size : 12.8 GiB (86%)
Default : Yes
Forced : No
Audio #2
ID : 2
Format : AC-3
Format/Info : Audio Coding 3
Mode extension : CM (complete main)
Format settings, Endianness : Big
Codec ID : A_AC3
Duration : 1h 47mn
Bit rate mode : Constant
Bit rate : 384 Kbps
Channel(s) : 6 channels
Channel positions : Front: L C R, Side: L R, LFE
Sampling rate : 48.0 KHz
Bit depth : 16 bits
Compression mode : Lossy
Stream size : 296 MiB (2%)
Title : Dub AC3 5.1 384kbps
Language : Russian
Default : Yes
Forced : No
Audio #3
ID : 3
Format : AC-3
Format/Info : Audio Coding 3
Mode extension : CM (complete main)
Format settings, Endianness : Big
Codec ID : A_AC3
Duration : 1h 47mn
Bit rate mode : Constant
Bit rate : 192 Kbps
Channel(s) : 2 channels
Channel positions : Front: L R
Sampling rate : 48.0 KHz
Bit depth : 16 bits
Compression mode : Lossy
Stream size : 148 MiB (1%)
Title : mvo (tv) AC3 2.0 192kbps
Language : Russian
Default : No
Forced : No
Audio #4
ID : 4
Format : AC-3
Format/Info : Audio Coding 3
Mode extension : CM (complete main)
Format settings, Endianness : Big
Codec ID : A_AC3
Duration : 1h 47mn
Bit rate mode : Constant
Bit rate : 448 Kbps
Channel(s) : 6 channels
Channel positions : Front: L C R, Side: L R, LFE
Sampling rate : 48.0 KHz
Bit depth : 16 bits
Compression mode : Lossy
Stream size : 346 MiB (2%)
Title : mvo (trans-mg) AC3 5.1 448kbps
Language : Russian
Default : No
Forced : No
Audio #5
ID : 5
Format : AC-3
Format/Info : Audio Coding 3
Mode extension : CM (complete main)
Format settings, Endianness : Big
Codec ID : A_AC3
Duration : 1h 47mn
Bit rate mode : Constant
Bit rate : 448 Kbps
Channel(s) : 6 channels
Channel positions : Front: L C R, Side: L R, LFE
Sampling rate : 48.0 KHz
Bit depth : 16 bits
Compression mode : Lossy
Stream size : 346 MiB (2%)
Title : mvo (Tycoon) AC3 5.1 448kbps
Language : Russian
Default : No
Forced : No
Audio #6
ID : 6
Format : AC-3
Format/Info : Audio Coding 3
Mode extension : CM (complete main)
Format settings, Endianness : Big
Codec ID : A_AC3
Duration : 1h 47mn
Bit rate mode : Constant
Bit rate : 448 Kbps
Channel(s) : 6 channels
Channel positions : Front: L C R, Side: L R, LFE
Sampling rate : 48.0 KHz
Bit depth : 16 bits
Compression mode : Lossy
Stream size : 346 MiB (2%)
Title : avo (Rudoy) AC3 5.1 448kbps
Language : Russian
Default : No
Forced : No
Audio #7
ID : 7
Format : AC-3
Format/Info : Audio Coding 3
Mode extension : CM (complete main)
Format settings, Endianness : Big
Codec ID : A_AC3
Duration : 1h 47mn
Bit rate mode : Constant
Bit rate : 448 Kbps
Channel(s) : 6 channels
Channel positions : Front: L C R, Side: L R, LFE
Sampling rate : 48.0 KHz
Bit depth : 16 bits
Compression mode : Lossy
Stream size : 346 MiB (2%)
Title : AC3 5.1 448kbps
Language : English
Default : No
Forced : No
Text #8
ID : 8
Format : UTF-8
Codec ID : S_TEXT/UTF8
Codec ID/Info : UTF-8 Plain Text
Title : R5
Language : Russian
Default : No
Forced : No
Text #9
ID : 9
Format : UTF-8
Codec ID : S_TEXT/UTF8
Codec ID/Info : UTF-8 Plain Text
Title : English
Language : English
Default : No
Forced : No
Скриншоты
Скачать

Скачать торрент!

Как скачивать? · Что такое торрент? · Рейтинг и ограничения

Сайт не распространяет и не хранит электронные версии произведений, а лишь предоставляет доступ к создаваемому пользователями каталогу ссылок на торрент-файлы, которые содержат только списки хеш-сумм

[Профиль] [ЛС]
Показать сообщения:    
Ответить на тему

Текущее время: Сегодня 19:26

Часовой пояс: GMT + 4



Вы не можете начинать темы
Вы не можете отвечать на сообщения
Вы не можете редактировать свои сообщения
Вы не можете удалять свои сообщения
Вы не можете голосовать в опросах
Вы не можете прикреплять файлы к сообщениям
Вы не можете скачивать файлы